<?xml version="1.0" standalone="no"?>
<!DOCTYPE svg PUBLIC "-//W3C//DTD SVG 1.1//EN" "http://www.w3.org/Graphics/SVG/1.1/DTD/svg11.dtd" >
<svg xmlns="http://www.w3.org/2000/svg">
<metadata>
Created by FontForge 20120731 at Fri Jul  8 14:26:30 2016
 By admin
</metadata>
<defs>
<font id="iconfont" horiz-adv-x="1024" >
  <font-face 
    font-family="iconfont"
    font-weight="500"
    font-stretch="normal"
    units-per-em="1024"
    panose-1="2 0 6 3 0 0 0 0 0 0"
    ascent="896"
    descent="-128"
    x-height="792"
    bbox="-87 -232 1297 896.252"
    underline-thickness="50"
    underline-position="-100"
    unicode-range="U+0078-E6FF"
  />
<missing-glyph horiz-adv-x="374" 
d="M34 0v682h272v-682h-272zM68 34h204v614h-204v-614z" />
    <glyph glyph-name=".notdef" horiz-adv-x="374" 
d="M34 0v682h272v-682h-272zM68 34h204v614h-204v-614z" />
    <glyph glyph-name=".null" horiz-adv-x="0" 
 />
    <glyph glyph-name="nonmarkingreturn" horiz-adv-x="341" 
 />
    <glyph glyph-name="x" unicode="x" horiz-adv-x="1001" 
d="M281 543q-27 -1 -53 -1h-83q-18 0 -36.5 -6t-32.5 -18.5t-23 -32t-9 -45.5v-76h912v41q0 16 -0.5 30t-0.5 18q0 13 -5 29t-17 29.5t-31.5 22.5t-49.5 9h-133v-97h-438v97zM955 310v-52q0 -23 0.5 -52t0.5 -58t-10.5 -47.5t-26 -30t-33 -16t-31.5 -4.5q-14 -1 -29.5 -0.5
t-29.5 0.5h-32l-45 128h-439l-44 -128h-29h-34q-20 0 -45 1q-25 0 -41 9.5t-25.5 23t-13.5 29.5t-4 30v167h911zM163 247q-12 0 -21 -8.5t-9 -21.5t9 -21.5t21 -8.5q13 0 22 8.5t9 21.5t-9 21.5t-22 8.5zM316 123q-8 -26 -14 -48q-5 -19 -10.5 -37t-7.5 -25t-3 -15t1 -14.5
t9.5 -10.5t21.5 -4h37h67h81h80h64h36q23 0 34 12t2 38q-5 13 -9.5 30.5t-9.5 34.5q-5 19 -11 39h-368zM336 498v228q0 11 2.5 23t10 21.5t20.5 15.5t34 6h188q31 0 51.5 -14.5t20.5 -52.5v-227h-327z" />
    <glyph glyph-name="uniE600" unicode="&#xe600;" 
d="M855 896h-686q-70 0 -119.5 -49.5t-49.5 -119.5v-686q0 -70 49.5 -119.5t119.5 -49.5h686q70 0 119.5 49.5t49.5 119.5v686q0 70 -49.5 119.5t-119.5 49.5zM214 853h596v-1v-2v-294q0 -22 -15.5 -37t-37.5 -15h-490q-22 0 -37.5 15t-15.5 37v294v2v1zM981 41
q0 -52 -37 -89t-89 -37h-686q-52 0 -89 37t-37 89v686q0 52 37 89t89 37h3v-1v-2v-294q0 -40 27.5 -67.5t67.5 -27.5h490q40 0 67.5 27.5t27.5 67.5v294v2v1h3q52 0 89 -37t37 -89v-686zM659 583q9 0 15.5 6.5t6.5 15.5v147q0 9 -6.5 15t-15.5 6t-15 -6t-6 -15v-147
q0 -9 6 -15.5t15 -6.5z" />
    <glyph glyph-name="uniE601" unicode="&#xe601;" 
d="M1024 669l-512 -570l-512 570h1024z" />
    <glyph glyph-name="uniE602" unicode="&#xe602;" 
d="M0 99l512 570l512 -570h-1024z" />
    <glyph glyph-name="uniE603" unicode="&#xe603;" 
d="M958 364h-892q-27 0 -45.5 -19t-18.5 -45t18.5 -45t45.5 -19h892q27 0 45.5 19t18.5 45t-18.5 45t-45.5 19z" />
    <glyph glyph-name="uniE604" unicode="&#xe604;" horiz-adv-x="1157" 
d="M1086 142h-208v-198v-70v-1h-70v1h-737v-1h-70v1v70v613v70h70h198v268h5h65h747h66h4v-683v-70h-70zM71 -56h737v198v70v345h-737v-613zM1086 825h-747v-198h469h70v-70v-345h208v613z" />
    <glyph glyph-name="uniE605" unicode="&#xe605;" 
d="M934 -150q-12 0 -20 8l-402 402l-402 -402q-8 -8 -20 -8t-20 8t-8 20t8 20l402 402l-402 402q-8 8 -8 20t8 20t20 8t20 -8l402 -402l402 402q8 8 20 8t20 -8t8 -20t-8 -20l-402 -402l402 -402q8 -8 8 -20t-8 -20t-20 -8z" />
    <glyph glyph-name="uniE606" unicode="&#xe606;" 
d="M873 148l-361 361v0v0l-361 -361q-15 -14 -15 -31q0 -16 11.5 -27.5t27.5 -11.5q15 0 28 11l309 309l308 -309q13 -11 28 -11q16 0 27.5 11.5t11.5 27.5q0 17 -14 31z" />
    <glyph glyph-name="uniE607" unicode="&#xe607;" 
d="M151 536l361 -361l361 361q15 14 15 31q0 16 -11.5 27.5t-27.5 11.5q-15 0 -28 -11l-309 -309l-308 309q-13 11 -28 11q-16 0 -27.5 -11.5t-11.5 -27.5q0 -17 14 -31z" />
    <glyph glyph-name="uniE608" unicode="&#xe608;" 
d="M284 286l226 227l-45 45l-271 -272l271 -271l45 45zM604 286l226 227l-45 45l-271 -272l271 -271l45 45z" />
    <glyph glyph-name="uniE609" unicode="&#xe609;" 
d="M740 386l-226 -227l45 -45l271 272l-271 271l-45 -45zM420 386l-226 -227l45 -45l271 272l-271 271l-45 -45z" />
    <glyph glyph-name="uniE60A" unicode="&#xe60a;" 
d="M921 332h-74v140q0 27 -19 46t-46 19h-328q-15 0 -25.5 10.5t-10.5 25.5q0 26 -19 45t-46 19h-230q-27 0 -46 -19t-19 -45v-546q0 -27 19 -45.5t46 -18.5h660q27 0 53 19t36 45l89 241q10 26 -1.5 45t-38.5 19zM351 571q1 -42 31 -71.5t72 -29.5h326v-138h-520
q-26 0 -52 -18.5t-36 -45.5l-47 -126v429h226z" />
    <glyph glyph-name="uniE60B" unicode="&#xe60b;" 
d="M816 798h-608q-9 0 -17.5 -1t-27 -6.5t-31.5 -16t-23.5 -33t-10.5 -53.5v-608q0 -84 80 -105l30 -5h608q22 0 40 6t29.5 16t19.5 21.5t12 23.5t6 21.5t2 15.5l1 6v608q0 31 -10.5 53.5t-23.5 33t-31.5 16t-27 6.5t-17.5 1zM870 80v-6q0 -3 -3 -12.5t-8.5 -17t-16.5 -13.5
t-26 -6h-608q-2 0 -5.5 0.5t-13 3.5t-17 8t-13.5 16.5t-6 26.5v608q0 54 55 54h608q9 0 15 -1t17 -5.5t16.5 -16.5t5.5 -31v-608zM319 522h386v55h-386v-55zM319 356h386v56h-386v-56zM319 191h386v55h-386v-55z" />
    <glyph glyph-name="uniE60C" unicode="&#xe60c;" 
d="M512 640h9h117h138h117q24 0 41 -12.5t23 -33.5q2 -9 2 -20v-509q0 -28 -18.5 -46.5t-46.5 -18.5h-763q-29 0 -47.5 18.5t-18.5 47.5v636q0 29 18.5 47.5t47.5 18.5h314q30 0 48.5 -18.5t18.5 -47.5v-55v-7zM129 640h319v64h-319v-64z" />
    <glyph glyph-name="uniE60D" unicode="&#xe60d;" 
d="M703 -99q-5 0 -10 3q-37 24 -97 26h-22l-35 -1h-446q-8 0 -13.5 5.5t-5.5 13.5v23q-2 38 21 78q21 35 59 60q46 30 114 42h1q35 5 71 14q28 8 45 16t19.5 11t3.5 4q0 2 1 4q2 11 0 40q-3 32 -16 61.5t-24 44t-31 37.5q-18 20 -25 30q-29 42 -31 90v1q0 19 17 35l1 1
q0 2 -1 7v3q-13 69 -1 138q1 22 13.5 45.5t20.5 32t14 13.5q12 11 17 18q0 1 1 2q-1 1 -1 2q-6 15 -4 25q3 18 24 24q7 2 20 2h2q44 3 70 1q49 -4 91.5 -14t67 -20t44.5 -22t25.5 -17t8.5 -9h1q21 -26 31 -62q3 -12 4 -20q7 -40 3 -97q-1 -20 -4 -45q-1 -5 0 -6l3 -3
q9 -9 12 -18q2 -7 2 -16v-1q-3 -48 -32 -90q-6 -10 -24 -30q-20 -23 -31 -37.5t-24 -44t-16 -61.5q-3 -29 -1 -40l2 -4q0 -1 3 -4t20 -11t44 -16q36 -9 71 -14h1q70 -13 116 -43q38 -25 58 -60q23 -39 20 -78v-22q0 -8 -5 -13.5t-13 -5.5h-177q-8 0 -13.5 5.5t-5.5 13.5
t5.5 13.5t13.5 5.5h158v4v2q2 28 -16 58q-17 27 -47 47q-39 25 -100 36q-38 5 -75 15q-82 22 -93 55q-7 13 -3 60q3 37 18 71.5t27.5 51t34.5 41.5q16 18 22 26q21 32 24 71v3q0 1 -4 5l-4 4q-11 14 -8 36q3 23 4 41q3 53 -3 89v1q-1 6 -4 15q-7 29 -23 47q-14 15 -45 30
q-67 32 -167 39q-24 2 -65 0h-2q-4 0 -7 -1q6 -13 2 -25q-2 -6 -6 -12q-7 -12 -24 -26q-34 -31 -35 -66v-2q-11 -63 1 -126v-3q5 -27 -11 -42l-6 -6v0v-1q3 -39 25 -71q5 -8 22 -26q21 -25 33.5 -41.5t28 -51t18.5 -71.5q4 -47 -3 -60q-12 -33 -93 -55q-38 -10 -75 -15
q-61 -10 -100 -35q-30 -20 -47 -47q-18 -31 -17 -59v-2v-4h427h36h22h1q71 -2 117 -32q6 -4 7.5 -11.5t-2.5 -14.5q-5 -8 -16 -8zM631 206q1 0 2 -1q-1 1 -2 1zM414 206q-1 0 -1 -1q0 1 1 1z" />
    <glyph glyph-name="uniE60E" unicode="&#xe60e;" 
d="M512 -212q-94 0 -179.5 36.5t-147.5 98.5t-98.5 147.5t-36.5 179.5q0 129 67 239t182 170q10 6 21.5 2.5t17 -14t2 -22t-14.5 -16.5q-100 -53 -158.5 -149.5t-58.5 -209.5q0 -110 54 -203t147 -147.5t203 -54.5t203 54.5t147 147.5t54 203q0 116 -60.5 213.5
t-164.5 149.5q-11 5 -15 16t1.5 22t16.5 14.5t22 -1.5q119 -59 188.5 -170t69.5 -244q0 -94 -36.5 -179.5t-98.5 -147.5t-147.5 -98.5t-179.5 -36.5zM512 263q-12 0 -20.5 8.5t-8.5 20.5v491q0 12 8.5 20.5t20.5 8.5t20.5 -8.5t8.5 -20.5v-491q0 -12 -8.5 -20.5t-20.5 -8.5z
" />
    <glyph glyph-name="uniE60F" unicode="&#xe60f;" 
d="M679 551h56v-446h-56v446zM290 551h55v-446h-55v446zM540 105v446h-28h-27v-446h27h28zM735 718v111q0 23 -16.5 39.5t-39.5 16.5h-334q-23 0 -39 -16.5t-16 -39.5v-111h-279v-56h112v-724q0 -23 16 -39.5t39 -16.5h669q22 0 38.5 16.5t16.5 39.5v724h112v56h-279z
M679 829v-111h-334v111h334zM847 -62h-669v724h669v-724z" />
    <glyph glyph-name="uniE610" unicode="&#xe610;" 
d="M269 -144l557 411q16 12 16 33t-16 33l-557 411q-20 15 -42.5 3.5t-22.5 -36.5v-822q0 -25 22.5 -36.5t42.5 3.5z" />
    <glyph glyph-name="uniE611" unicode="&#xe611;" 
d="M928 481q-9 0 -15.5 -6.5t-6.5 -15.5v-407q0 -19 -13.5 -32.5t-32.5 -13.5h-688q-19 0 -32 13.5t-13 32.5v663q0 19 13 32.5t32 13.5h443q10 0 16.5 7t6.5 16t-6.5 16t-16.5 7h-447q-36 0 -61.5 -25.5t-25.5 -61.5v-672q0 -37 25.5 -62t61.5 -25h696q36 0 61.5 25
t25.5 62v411q0 9 -6.5 15.5t-16.5 6.5v0zM503 188l435 436q20 19 18.5 48t-23.5 51l-41 41q-22 22 -51 23.5t-48 -17.5l-436 -436zM825 737q7 7 18.5 6.5t19.5 -8.5l41 -41q8 -8 8.5 -19t-6.5 -19l-48 -48l-81 81zM823 574l-324 -324l-81 80l325 325zM357 333l-45 -164
q-3 -12 5.5 -20.5t19.5 -5.5l164 45l-33 34l-107 -29l29 106zM357 333z" />
    <glyph glyph-name="uniE612" unicode="&#xe612;" 
d="M512 896q-139 0 -257 -68.5t-186.5 -186.5t-68.5 -257t68.5 -257t186.5 -186.5t257 -68.5t257 68.5t186.5 186.5t68.5 257t-68.5 257t-186.5 186.5t-257 68.5zM512 -64q-85 0 -167.5 38t-143.5 99t-99 143.5t-38 167.5t38 167.5t99 143.5t143.5 99t167.5 38t167.5 -38
t143.5 -99t99 -143.5t38 -167.5t-38 -167.5t-99 -143.5t-143.5 -99t-167.5 -38zM654 611q-53 46 -140 46q-84 0 -135.5 -45.5t-55.5 -110.5l94 -11q10 45 36 67.5t65 22.5q40 0 64 -21.5t24 -51.5q0 -21 -14 -39q-8 -12 -53 -48t-60 -65q-14 -29 -14 -74v-25h93
q-1 42 7 58.5t40 43.5q63 52 82 82.5t19 63.5q0 61 -52 107zM465 119h102v102h-102v-102z" />
    <glyph glyph-name="uniE613" unicode="&#xe613;" 
d="M704 162q45 54 65 118q16 51 16 108q0 98 -48.5 181t-131.5 131t-180.5 48t-180.5 -48t-131.5 -131t-48.5 -181t48.5 -181t131.5 -131.5t181 -48.5q128 0 225 81l228 -228q12 -12 28 -12t27 11q11 12 11 27.5t-12 27.5zM115 390q0 127 90 217t217 90t217.5 -90t90.5 -217
t-90.5 -217.5t-217.5 -90.5t-217 90.5t-90 217.5z" />
    <glyph glyph-name="uniE614" unicode="&#xe614;" 
d="M511 827q-90 0 -172 -35t-141 -94t-94 -141t-35 -172t35 -172t94 -141t141 -94t172 -35t172 35t141 94t94 141t35 172t-35 172t-94 141t-141 94t-172 35v0zM508 76q-27 0 -46 18.5t-19 45t19 45t46 18.5t46 -18.5t19 -45t-19 -45t-46 -18.5v0zM683 437q-19 -30 -81 -82
q-33 -27 -40.5 -43.5t-7.5 -58.5h-92q0 6 -0.5 11.5t-0.5 9.5v4q0 45 15 74t60 65q45 37 53 48q14 18 14 39q0 30 -24 51.5t-64 21.5q-39 0 -66 -23q-12 -10 -22.5 -30.5t-13.5 -36.5q-1 -10 -25 -14.5t-46.5 2t-22.5 23.5q2 64 56 111q51 45 135 45q88 0 140 -45.5
t52 -107.5q0 -33 -19 -64v0zM683 437z" />
    <glyph glyph-name="uniE615" unicode="&#xe615;" 
d="M853 384h-113v-114h113v114zM284 896h-56v-171h56v171zM569 384h-114v-114h114v114zM683 839h-342v-57h342v57zM284 384h-113v-114h113v114zM967 839h-114v-57h57q24 0 40.5 -16.5t16.5 -40.5v-170h-910v170q0 24 16.5 40.5t40.5 16.5h57v57h-114q-24 0 -40.5 -16.5
t-16.5 -40.5v-853q0 -24 16.5 -40.5t40.5 -16.5h910q24 0 40.5 16.5t16.5 40.5v853q0 24 -16.5 40.5t-40.5 16.5zM967 -14q0 -24 -16.5 -40.5t-40.5 -16.5h-796q-24 0 -40.5 16.5t-16.5 40.5v512h910v-512zM284 156h-113v-113h113v113zM569 156h-114v-113h114v113zM796 896
h-56v-171h56v171zM853 156h-113v-113h113v113z" />
    <glyph glyph-name="uniE616" unicode="&#xe616;" 
d="M803 -101q0 20 -19 36q-10 8 -32 26t-33 28q-7 6 -25 21t-26 22l-58 49q-3 2 -8 6t-6 6q-37 31 -40 33l-47 40q-1 0 -2 1l-2 2l-98 82q-56 46 -58 49l3 3l7 6q5 4 13.5 11t12 10.5t14 11.5t15.5 13q4 4 12.5 10.5t9.5 7.5l326 274q28 21 34.5 32t5.5 25t-9 24
q-23 27 -58 19q-9 -2 -17 -7.5t-17.5 -14t-13.5 -11.5l-114 -95q-1 -1 -2.5 -2t-1.5 -2q-5 -4 -14 -11.5t-13 -10.5l-61 -51q-4 -4 -19.5 -16.5t-20.5 -17.5l-17 -15q-10 -7 -31 -25t-31 -26q-1 -1 -4 -3.5t-4 -3.5l-62 -52l-8 -7l-14 -11l-2 -1l-2 -3l-17 -14
q-2 -2 -9 -7.5t-9.5 -8t-6 -8t-5.5 -11.5q-5 -18 2.5 -31t24.5 -26l57 -48q6 -4 17.5 -14t17.5 -15l18 -15q3 -3 14 -11.5t16 -13.5l66 -55q1 -1 9 -8q3 -2 8.5 -7t8.5 -7q1 -1 7.5 -6.5t10.5 -8.5q1 -1 4 -3.5t5 -3.5l35 -30q6 -5 9 -8q1 0 2 -1l2 -2l4 -4q1 0 4 -3t5 -4
l26 -22q2 -1 5 -3.5t4 -3.5l18 -15q4 -4 13 -11t13 -11l70 -59q6 -4 11 -6q27 -11 52 3t25 40z" />
    <glyph glyph-name="uniE617" unicode="&#xe617;" 
d="M221 785q0 -20 19 -36q10 -8 32 -26t33 -28q7 -6 25 -21t26 -22l58 -49q3 -2 8 -6t6 -6q37 -31 40 -33l47 -40q1 0 2 -1l2 -2l98 -82q56 -46 58 -49l-3 -3l-7 -6q-5 -4 -13.5 -11t-12 -10.5t-14 -11.5t-15.5 -13q-4 -4 -12.5 -10.5t-9.5 -7.5l-326 -274
q-28 -21 -34.5 -32t-5.5 -25t9 -24q23 -27 58 -19q9 2 17 7.5t17.5 14t13.5 11.5l114 95q1 1 2.5 2t1.5 2q5 4 14 11.5t13 10.5l61 51q4 4 19.5 16.5t20.5 17.5l17 15q10 7 31 25t31 26q1 1 4 3.5t4 3.5l62 52l8 7l14 11l2 1l2 3l17 14q2 2 9 7.5t9.5 8t6 8t5.5 11.5
q5 18 -2.5 31t-24.5 26l-57 48q-6 4 -17.5 14t-17.5 15l-18 15q-3 3 -14 11.5t-16 13.5l-66 55q-1 1 -9 8q-3 2 -8.5 7t-8.5 7q-1 1 -7.5 6.5t-10.5 8.5q-1 1 -4 3.5t-5 3.5l-35 30q-6 5 -9 8q-1 0 -2 1l-2 2l-4 4q-1 0 -4 3t-5 4l-26 22q-2 1 -5 3.5t-4 3.5l-18 15
q-4 4 -13 11t-13 11l-70 59q-6 4 -11 6q-27 11 -52 -3t-25 -40v0z" />
    <glyph glyph-name="uniE618" unicode="&#xe618;" 
d="M755 828l-557 -411q-16 -12 -16 -33t16 -33l557 -411q20 -15 42.5 -3.5t22.5 36.5v822q0 25 -22.5 36.5t-42.5 -3.5z" />
    <glyph glyph-name="uniE619" unicode="&#xe619;" 
d="M623 764v-67h311v-44h-311v-70h311v-43h-311v-69h311v-43h-311v-69h311v-43h-311v-69h311v-43h-311v-69h311v-43h-311v-90h400v762h-400zM309 467q-20 15 -41.5 48.5t-35.5 45.5q-11 -28 -30 -78t-29 -77q25 7 46 13.5t31.5 10t33.5 12.5t33 13l-4 6zM1 786v-530v-275
l576 -109v350v672zM182.5 110q-4.5 -10 -12 -15.5t-14.5 -6.5q-11 -1 -30 2l-17 2v-62l-27 4v163l43 -4q26 -2 34 -5q12 -5 20 -18.5t8 -33.5q0 -16 -4.5 -26zM337 44q-6 -19 -17 -29q-9 -8 -23 -11q-10 -2 -28 1l-57 9v172l55 -5q20 -1 30 -6q14 -5 24.5 -18t15.5 -31
t5 -44q0 -22 -5 -38zM492 130l-86 8v-44l74 -8v-33l-74 10v-80l-35 6v184l121 -11v-32zM43 293q15 49 77 79q-7 -11 -23 -27.5t-26 -32.5t-14 -39q37 23 94 137t65 178q4 26 -5 85t-2 94q6 14 15 17q20 8 27 -6q13 -22 11 -42q-1 -11 -4 -11q-2 0 -4 6q-2 18 -5 25.5
t-10 15.5q-4 4 -11 -2q-14 -35 7 -133q2 -5 6 5q9 40 13 50q-10 -30 -6 -66t16.5 -68.5t36.5 -57.5t53 -33q22 -4 47.5 -2t48 6t43.5 -4.5t34 -32.5q-54 14 -139 11q-4 -2 -1 -4q5 -3 9 -4q29 -14 71 -18.5t55 -8.5q2 -13 -9 -15q-36 -7 -74 2t-69 23.5t-33 14.5
q-31 -9 -89 -23.5t-86 -22.5q-29 -72 -85 -130q-22 -14 -36 14q-2 7 2 20zM142 162q-5 2 -20 4l-13 1v-47l15 -2q16 -2 21.5 0t9 7.5t3.5 12.5q0 10 -4.5 16t-11.5 8zM296 138.5q-6 6.5 -15 9.5q-6 3 -25 5l-14 1v-116l23 -3q13 -2 19 -1q8 1 13 5.5t8 16t3 32.5t-3 32.5
t-9 18z" />
    <glyph glyph-name="uniE61A" unicode="&#xe61a;" 
d="M16 10l575 -102v952l-575 -102v-748zM186 555l29 -189l42 189h80l43 -189l29 189h80l-60 -338h-84l-48 213l-48 -213h-83l-61 338h81zM613 769v-102h316v-45h-316v-57h316v-45h-316v-57h316v-45h-316v-57h316v-45h-316v-57h316v-45h-316v-57h316v-45h-316v-113h395v770
h-395z" />
    <glyph glyph-name="uniE61B" unicode="&#xe61b;" 
d="M613 741v-55h136v-101h-136v-22h136v-101h-136v-22h136v-112h-136v-22h136v-101h-136v-22h136v-101h-136v-55h395v714h-395zM929 82h-158v101h158v-101zM929 205h-158v101h158v-101zM929 328h-158v112h158v-112zM929 462h-158v101h158v-101zM929 585h-158v101h158v-101z
M16 15l575 -100v938l-575 -100v-738zM154 550h102l53 -104l52 104h101l-94 -163l103 -173h-105l-59 108l-59 -108h-104l104 175z" />
    <glyph glyph-name="uniE61C" unicode="&#xe61c;" 
d="M970 58q-79 117 -123 224.5t-48 229.5q-3 97 -60 166.5t-154 96.5q-166 47 -285 -95q-66 -80 -78 -220q-10 -112 -45 -195q-13 -32 -33 -66.5t-45 -75t-39 -64.5q-23 -41 -15 -52q7 -9 23 -15.5t31 -6.5q91 -1 413 -1q327 0 419 1q15 0 31 6.5t24 15.5q5 5 -1 21.5
t-15 29.5zM515 -207q67 0 105.5 38.5t37.5 105.5h-284q-3 -65 36 -104.5t105 -39.5z" />
    <glyph glyph-name="uniE61D" unicode="&#xe61d;" 
d="M512 635h-447v-670h4h53h390h390h53h4v670h-447zM883 605l-371 -346l-371 346h742zM883 -5h-742l283 264l-22 21l-305 -285h-2v610h2l415 -387l415 387h2v-610h-2l-305 285l-22 -21z" />
    <glyph glyph-name="uniE61E" unicode="&#xe61e;" 
d="M171 618v-683q0 -34 23.5 -58t57.5 -24h520q34 0 57.5 24t23.5 58v683q0 33 -23.5 57t-57.5 24h-197q-6 21 -23.5 35t-39.5 14t-39.5 -14t-23.5 -35h-197q-34 0 -57.5 -24t-23.5 -57zM512 715q13 0 23 -9.5t10 -23t-10 -23t-23 -9.5t-23 9.5t-10 23t10 23t23 9.5z
M203 618q0 20 14.5 34t34.5 14h197q2 -8 7 -16h-74q-7 0 -11.5 -4.5t-4.5 -11.5t4.5 -11.5t11.5 -4.5h260q7 0 11.5 4.5t4.5 11.5t-4.5 11.5t-11.5 4.5h-74q5 8 7 16h197q20 0 34.5 -14t14.5 -34v-683q0 -20 -14.5 -34.5t-34.5 -14.5h-520q-20 0 -34.5 14.5t-14.5 34.5v683z
M382 569h260q7 0 11.5 4.5t4.5 11.5t-4.5 11.5t-11.5 4.5h-260q-7 0 -11.5 -4.5t-4.5 -11.5t4.5 -11.5t11.5 -4.5zM382 438.5q0 -6.5 4.5 -11.5t11.5 -5l352 1q7 0 12 4.5t5 11.5t-5 11.5t-12 4.5h-352q-7 0 -11.5 -5t-4.5 -11.5zM297 406h7q12 0 20.5 8.5t8.5 21.5v6
q0 12 -8.5 20.5t-20.5 8.5h-7q-12 0 -20.5 -8.5t-8.5 -20.5v-6q0 -13 8.5 -21.5t20.5 -8.5zM297 276h7q12 0 20.5 8.5t8.5 20.5v7q0 12 -8.5 20.5t-20.5 8.5h-7q-12 0 -20.5 -8.5t-8.5 -20.5v-7q0 -12 8.5 -20.5t20.5 -8.5zM297 146h7q12 0 20.5 8.5t8.5 20.5v7
q0 12 -8.5 20.5t-20.5 8.5h-7q-12 0 -20.5 -8.5t-8.5 -20.5v-7q0 -12 8.5 -20.5t20.5 -8.5zM297 16h7q12 0 20.5 8.5t8.5 20.5v7q0 12 -8.5 20.5t-20.5 8.5h-7q-12 0 -20.5 -8.5t-8.5 -20.5v-7q0 -12 8.5 -20.5t20.5 -8.5zM750 325h-352q-7 0 -11.5 -5t-4.5 -11.5t4.5 -11.5
t11.5 -5h352q7 0 12 5t5 11.5t-5 11.5t-12 5zM750 195h-352q-7 0 -11.5 -5t-4.5 -11.5t4.5 -11.5t11.5 -5h352q7 0 12 5t5 11.5t-5 11.5t-12 5zM750 65h-352q-7 0 -11.5 -5t-4.5 -11.5t4.5 -11.5t11.5 -5h352q7 0 12 5t5 11.5t-5 11.5t-12 5z" />
    <glyph glyph-name="uniE61F" unicode="&#xe61f;" horiz-adv-x="1450" 
d="M522 88h252q8 20 19 39h-271v-39zM873 361h-351v-39h351v39zM405 -166q-16 0 -27.5 11.5t-11.5 27.5v761q0 16 11.5 27.5t27.5 11.5h605q16 0 27.5 -11.5t11.5 -27.5v-372q21 -1 39 -5v377q0 33 -23 55.5t-55 22.5h-605q-32 0 -55 -22.5t-23 -55.5v-761q0 -32 23 -55
t55 -23h433q-18 18 -33 39h-400zM873 214v30h-351v-39h339q7 5 12 9zM1029 185q-81 0 -138 -57t-57 -138t57 -138t138 -57t138.5 57t57.5 138t-57.5 138t-138.5 57zM1029 -166q-64 0 -110 45.5t-46 110.5t46 110.5t110.5 45.5t110.5 -45.5t46 -110.5t-46 -110.5t-111 -45.5z
M873 478h-351v-39h351v39zM1049 88h-39v-118h117v39h-78v79z" />
    <glyph glyph-name="uniE620" unicode="&#xe620;" 
d="M203 -44h-124q-5 0 -9.5 4.5t-4.5 9.5v330q0 6 4.5 10t9.5 4h124q6 0 10 -4t4 -10v-330q0 -5 -4 -9.5t-10 -4.5zM94 -15h95v301h-95v-301zM429.5 492q-48.5 0 -83 34t-34.5 82.5t34.5 83t83 34.5t83 -34.5t34.5 -83t-34.5 -82.5t-83 -34zM429.5 698q-36.5 0 -62.5 -26
t-26 -63t26 -63t62.5 -26t62.5 26t26 63t-26 63t-62.5 26zM718 286q-48 0 -82.5 34.5t-34.5 82.5t34.5 82.5t82.5 34.5t82.5 -34.5t34.5 -82.5t-34.5 -82.5t-82.5 -34.5zM718 492q-37 0 -63 -26t-26 -63t26 -63t63 -26t63 26t26 63t-26 63t-63 26zM656 39h-288q-6 0 -10 4
t-4 10t4 10t10 4h273q-4 20 -16 37.5t-28.5 29.5t-27 18t-19.5 10h-141q-7 0 -11 6q-16 21 -40.5 37t-45 23t-43.5 11.5t-32 5t-13 0.5q-6 0 -10.5 4t-4.5 10t4.5 10t10.5 4t15.5 -0.5t34.5 -5t47.5 -12.5t49 -25t45.5 -39h137q3 0 5 -1q6 -3 14.5 -7t27 -16.5t33 -27
t26 -38t11.5 -48.5q0 -6 -4 -10t-10 -4zM512 -126h-103q-2 0 -4 1q-64 21 -209 104q-12 7 -5 19t19 5q142 -80 201 -101h98l418 159q-26 60 -85 60h-227q-6 0 -10 4t-4 10t4 10t10 4h227q49 0 78.5 -30t37.5 -63q3 -12 -8 -16l-433 -165q-2 -1 -5 -1z" />
    <glyph glyph-name="uniE621" unicode="&#xe621;" 
d="M307 -19h-55l-8 174q-37 -1 -76 -1q-57 0 -64 3q-24 8 -39 29.5t-15 47.5v461q0 34 24 58t58 24h756q34 0 58 -24t24 -58v-461q0 -34 -24 -58t-58 -24h-448zM286 16h4l133 171h465q19 0 32.5 13.5t13.5 33.5v461q0 19 -13.5 33t-32.5 14h-756q-20 0 -33.5 -14t-13.5 -33
v-461q0 -15 8.5 -26.5t21.5 -17.5h53h46h36h10h17zM639 632l-88 -163h70v-36h-83v-50h83v-36h-83v-72h-45v72h-84v36h84v50h-84v36h71l-87 163h51l61 -127q5 -9 12 -27h1q4 13 12 28l61 126h48z" />
    <glyph glyph-name="uniE622" unicode="&#xe622;" 
d="M890 141h-50l-2 325q0 116 -75 201.5t-189 104.5v8q0 21 -16.5 36t-38.5 15q-21 0 -34 -14.5t-13 -36.5v-2v-4v-2q-114 -19 -193 -105t-79 -201v-325h-50q-16 0 -22.5 -9.5t0 -19t22.5 -9.5h740v38zM802 141h-565q0 43 -1 322q1 53 23 103t59 86t83.5 61t96.5 33v9
q0 25 12.5 35.5t25.5 0t13 -35.5v-9q101 -17 178 -99t77 -184v-1q-1 -275 -2 -321zM519.5 -60q44.5 0 76 28.5t31.5 71.5h-214q0 -43 31 -71.5t75.5 -28.5zM551 567h-37v-125h-138v-38h138v-138h37v138h126v38h-126v125z" />
    <glyph glyph-name="uniE623" unicode="&#xe623;" 
d="M697.5 347q-5.5 0 -10 -4t-4.5 -10v-419h-624v413h116q6 0 10 4t4 10v116h81q6 0 10 4t4 10t-4 10t-10 4h-95q-7 0 -11 -6q-1 0 -2 -0.5t-2 -1.5l-126 -126v-3l-1 -1q-3 -5 -3 -6v-441q0 -6 4 -10t10 -4h653q6 0 10 4t4 10v433q1 6 -3.5 10t-10 4zM160 437v-82h-81z
M608 161h-480q-5 0 -9.5 -4t-4.5 -9.5t4.5 -10t9.5 -4.5h480q6 0 10 4.5t4 10t-4 9.5t-10 4zM608 39h-480q-5 0 -9.5 -4t-4.5 -10t4.5 -10t9.5 -4h480q6 0 10 4t4 10t-4 10t-10 4zM333 654h212q7 0 12.5 5t5.5 12.5t-5.5 13t-12.5 5.5h-212q-7 0 -12.5 -5.5t-5.5 -13
t5.5 -12.5t12.5 -5zM333 253h212q7 0 12.5 5t5.5 13t-5.5 13t-12.5 5h-212q-7 0 -12.5 -5t-5.5 -13t5.5 -13t12.5 -5zM965 496h-425v20v38v44v18h-99h-100v-288h199v111h426q12 0 20 8.5t8 19.5q0 12 -8.5 20.5t-20.5 8.5z" />
    <glyph glyph-name="uniE624" unicode="&#xe624;" horiz-adv-x="1449" 
d="M750.5 432q-41.5 0 -71 -29.5t-29.5 -71t29.5 -71t71 -29.5t71 29.5t29.5 71t-29.5 71t-71 29.5zM750 265q-28 0 -47.5 19.5t-19.5 47t19.5 47t47.5 19.5t47.5 -19.5t19.5 -47t-19.5 -47t-47.5 -19.5zM750 566q-97 0 -165.5 -68.5t-68.5 -165.5t68.5 -166t165.5 -69
t165.5 69t68.5 166t-68.5 165.5t-165.5 68.5zM750 131q-83 0 -142 58.5t-59 142t59 142t142 58.5t142 -58.5t59 -142t-59 -142t-142 -58.5zM1005 66q53 52 83 120.5t30 145.5q0 100 -49 184.5t-134 134t-185 49.5t-184.5 -49.5t-134 -134t-49.5 -184.5q0 -77 30 -145.5
t83 -120.5l-41 -74q-5 -5 -5 -12t5 -12t12 -5t12 5q2 3 3 7l39 69q101 -81 230 -81t230 81l39 -69q3 -12 16 -12q7 0 11.5 5t4.5 12t-5 12zM750 -3q-91 0 -168 44.5t-122 122t-45 168.5t45 168t122 121.5t168 44.5t168 -44.5t122 -121.5t45 -168t-45 -168.5t-122 -122
t-168 -44.5z" />
    <glyph glyph-name="uniE625" unicode="&#xe625;" 
d="M509 246q-10 0 -17 7t-7 17v239q0 10 7 17t17 7t17 -7t7 -17v-239q0 -10 -7 -17t-17 -7zM605 437h-192q-10 0 -17 7t-7 17t7 17t17 7h192q10 0 17 -7t7 -17t-7 -17t-17 -7zM509 485q-10 0 -17 7t-7 17t7 17l96 96q7 7 17 7t17 -7t7 -17t-7 -17l-96 -96q-7 -7 -17 -7z
M509 485q-10 0 -17 7l-96 96q-7 7 -7 17t7 17t17 7t17 -7l96 -96q7 -7 7 -16.5t-7 -17t-17 -7.5zM605 342h-192q-10 0 -17 7t-7 16.5t7 17t17 7.5h192q10 0 17 -7.5t7 -17t-7 -16.5t-17 -7zM310 -8q-14 0 -25 6q-24 14 -24 46v93h-33q-58 0 -99.5 44t-41.5 107v325
q0 62 41.5 106t99.5 44h36q8 0 14 -6.5t6 -15.5t-6 -15t-14 -6h-36q-41 0 -71 -31.5t-30 -76.5v-324q0 -45 30 -76.5t71 -31.5h74v-136q0 -7 3 -8q8 -6 30 9l206 135h257q42 0 72 31.5t30 76.5v324q0 45 -30 76.5t-72 31.5h-402q-9 0 -15 6t-6 15t6 15.5t15 6.5h402
q59 0 100.5 -44t41.5 -106v-325q0 -63 -41.5 -107t-100.5 -44h-245l-196 -129q-26 -16 -47 -16z" />
    <glyph glyph-name="uniE626" unicode="&#xe626;" 
d="M790 867h-634q-51 0 -51 -51v-802q0 -51 51 -51h634q51 0 51 51v802q0 51 -51 51zM810 19q0 -9 -6 -15t-15 -6h-633q-9 0 -15 6t-6 15v794q0 9 6 15t15 6h633q9 0 15 -6t6 -15v-794zM268 755h412v-27h-412v27zM268 650h412v-27h-412v27zM268 548h412v-27h-412v27z
M509 435l33 -16h138v27h-217h5q4 -1 15.5 -3.5t25.5 -7.5zM390 419q-79 0 -129 -50.5t-50 -129t50 -129t129 -50.5t129.5 50.5t50.5 129t-50.5 129t-129.5 50.5zM390 75q-68 0 -116 48t-48 116t48 116.5t116 48.5t116.5 -48.5t48.5 -116.5t-48.5 -116t-116.5 -48zM406 323
q2 -6 6.5 -18.5t7.5 -22.5l3 -9h57q9 0 11 -5t-5 -11l-46 -37q13 -42 17 -54q3 -9 -1.5 -12.5t-10.5 0.5l-48 34q-39 -27 -48 -34q-6 -4 -10 0t-2 11l17 55q-38 30 -46 37q-6 5 -5 10.5t10 5.5h58q13 38 17 50q3 10 9 10t9 -10zM397 322q-18 -52 -19 -54q-2 -4 -6 -4h-59
q45 -36 47 -38q4 -3 3 -8l-18 -56q47 33 49 35q3 2 6 0l49 -35q-17 54 -18 57q-1 4 2 6l49 39h-60q-4 1 -6 4z" />
    <glyph glyph-name="uniE627" unicode="&#xe627;" 
d="M512 808q-103 0 -197 -40.5t-162 -108.5t-108.5 -162t-40.5 -197t40.5 -197t108.5 -162t162 -108.5t197 -40.5t197 40.5t162 108.5t108.5 162t40.5 197t-40.5 197t-108.5 162t-162 108.5t-197 40.5zM547 55h-58v402q-38 -38 -96 -73v56q72 49 119 116h35v-501z" />
    <glyph glyph-name="uniE628" unicode="&#xe628;" 
d="M512 808q-103 0 -197 -40.5t-162 -108.5t-108.5 -162t-40.5 -197t40.5 -197t108.5 -162t162 -108.5t197 -40.5t197 40.5t162 108.5t108.5 162t40.5 197t-40.5 197t-108.5 162t-162 108.5t-197 40.5zM653 173.5q-7 -56.5 -50.5 -91.5t-99 -33.5t-96.5 35t-52 97.5l52 8
q12 -38 38 -62.5t65.5 -23t62.5 32t20.5 70t-30.5 61t-89 30.5v38q61 6 89 32t25 68.5t-38 61t-74.5 4t-62.5 -81.5l-52 9q17 52 47.5 87t83 41t92 -13t55.5 -58.5t4 -86t-67 -81.5q41 -17 62.5 -52t14.5 -91.5z" />
    <glyph glyph-name="uniE629" unicode="&#xe629;" 
d="M512 808q-103 0 -197 -40.5t-162 -108.5t-108.5 -162t-40.5 -197t40.5 -197t108.5 -162t162 -108.5t197 -40.5t197 40.5t162 108.5t108.5 162t40.5 197t-40.5 197t-108.5 162t-162 108.5t-197 40.5zM655 55h-294v12q2 44 40 79t96.5 109t76 115t13 70t-28 48t-54 16
t-58 -23.5t-42.5 -61.5l-55 9q23 67 59.5 97.5t86.5 33.5q29 3 52 -1.5t48 -20.5t41 -48t11.5 -77t-45.5 -107.5t-157 -196.5h210v-53z" />
    <glyph glyph-name="uniE62A" unicode="&#xe62a;" 
d="M559 216v230l-163 -230h163zM512 808q-103 0 -197 -40.5t-162 -108.5t-108.5 -162t-40.5 -197t40.5 -197t108.5 -162t162 -108.5t197 -40.5t197 40.5t162 108.5t108.5 162t40.5 197t-40.5 197t-108.5 162t-162 108.5t-197 40.5zM684 166h-70v-111h-55v111h-225v50
l236 340h44v-340h70v-50z" />
    <glyph glyph-name="uniE62B" unicode="&#xe62b;" 
d="M512 808q-103 0 -197 -40.5t-162 -108.5t-108.5 -162t-40.5 -197t40.5 -197t108.5 -162t162 -108.5t197 -40.5t197 40.5t162 108.5t108.5 162t40.5 197t-40.5 197t-108.5 162t-162 108.5t-197 40.5zM656 213q-1 -33 -13 -66t-35 -55t-56.5 -35t-77 -10t-83 32t-54.5 99
l53 14q20 -78 69.5 -87t80 10t43.5 49.5t11.5 68.5t-20 64t-48 35t-65.5 0t-60 -41l-49 6q6 17 55 250h230v-52h-186q-15 -79 -29 -125q43 20 81 18.5t73 -17.5t51 -43q16 -28 23.5 -55.5t5.5 -59.5z" />
    <glyph glyph-name="uniE62C" unicode="&#xe62c;" 
d="M511 812q-104 0 -198.5 -40.5t-163 -109t-109 -163t-40.5 -198.5t40.5 -199t109 -163.5t163 -108.5t198.5 -40t199 40t163.5 108.5t109 163.5t40.5 199t-40.5 198.5t-109 163t-163.5 109t-199 40.5zM511 -163q-94 0 -180 37t-148 99t-98.5 147.5t-36.5 180t36.5 180.5
t98.5 148t148 98.5t180.5 36.5t180 -36.5t147.5 -98.5t99 -148t37 -180.5t-37 -180t-99 -147.5t-147.5 -99t-180.5 -37zM832 469l-381 -381q-10 -10 -23 -10t-23 10l-214 214q-10 10 -10 23t9.5 22.5t22.5 9.5t23 -10l192 -192l359 359q9 9 22.5 9t22.5 -9t9 -22.5t-9 -22.5
zM832 469z" />
    <glyph glyph-name="uniE62D" unicode="&#xe62d;" horiz-adv-x="1405" 
d="M1272 488l-343 -341l-251 -92l95 248l342 341q26 25 62.5 25t62.5 -25l32 -31q25 -26 25 -62.5t-25 -62.5zM754 130l150 56l9 8l-94 93l-8 -8zM850 318l94 -93l234 233l-94 93zM1241 582l-32 31q-13 13 -31 13t-31 -13l-32 -31l94 -93l32 31q12 13 12 31t-12 31zM436 33
v44h217l-16 -44h-201zM687 164h-251v44h267zM436 472h221v-44h-221v44zM657 296h-221v44h221v-44zM922 77v-44h-215l119 44h96zM811 721v-161q0 -19 13 -31.5t32 -12.5h68l-44 -44h-24q-37 0 -63 25.5t-26 62.5v197h-397q-18 0 -31 -12.5t-13 -31.5v-834q0 -18 13 -31
t31 -13h618q18 0 31 13t13 31v310l44 43v-353q0 -36 -25.5 -62t-62.5 -26h-618q-37 0 -62.5 26t-25.5 62v834q0 37 25.5 62.5t62.5 25.5h331h12h23h61l200 -213l-31 -31zM811 721z" />
    <glyph glyph-name="uniE62E" unicode="&#xe62e;" 
d="M371 340v46h70q9 0 16 7t7 16v348h307l-118 -197q-4 -6 -4 -11.5t4 -12.5l118 -196h-400zM46 432v418h371v-418h-371zM831 328l-132 220l132 220q4 6 4 12q0 10 -7 16.5t-17 6.5h-347v70q0 9 -7 16t-16 7h-418q-9 0 -16 -7t-7 -16v-974q0 -9 7 -16t16.5 -7t16 7t6.5 16
v487h279v-70q0 -9 6.5 -16t16.5 -7h463q10 0 17 7t7 16q0 6 -4 12v0z" />
    <glyph glyph-name="uniE62F" unicode="&#xe62f;" 
d="M511 -128q-8 0 -18 1q-7 2 -18.5 4.5t-40.5 13.5t-57 25.5t-65 42t-68.5 61t-63.5 84.5t-54.5 111t-36.5 142t-14 175v148q0 42 32 71q31 28 73 25h24q65 0 115 12q55 13 128 82q6 6 11 8q21 15 52 15t55 -15q6 -4 25 -20q77 -61 116 -70q50 -12 114 -12h23q3 1 7 1
q39 0 67 -26q32 -29 32 -71v-148q0 -93 -14 -175t-36.5 -142t-54.5 -111t-64 -84.5t-69.5 -61t-65.5 -42t-57 -25.5t-40.5 -13.5t-19.5 -4.5q-9 -1 -17 -1zM174 741q-25 0 -43 -17q-20 -18 -20 -44v-148q0 -113 21 -207.5t52.5 -156.5t75 -111t80 -75t76.5 -44.5t56.5 -22.5
t27.5 -6t22 0t27.5 6t56.5 22.5t77 44.5t81 75t75.5 111t53 156.5t21.5 207.5v148q0 26 -21 44q-18 17 -43 17h-5q-5 -1 -25 -1q-68 0 -123 13q-46 11 -129 77q-18 15 -22 17q-16 10 -35.5 10t-34.5 -10q-2 -1 -4 -3q-81 -76 -144 -91q-55 -13 -124 -13q-20 0 -27 1h-3z
M345 563q0 26 -2 49h43q-4 -17 -6 -49v-57q24 0 53 2v-35q-30 2 -53 2v-81l40 16q0 -14 2 -35q-18 -6 -42 -18v-157q-2 -18 -16.5 -27t-52.5 -13q0 24 -11 45q41 -3 45 10v128q-35 -16 -53 -29q-4 17 -16 43q41 10 69 23v95q-36 0 -63 -2v35q24 -2 63 -2v57zM477 341v34
q29 -2 53 -2h151q-6 -28 -25.5 -66.5t-47.5 -71.5q24 -16 58 -26q35 -9 70 -11q-20 -14 -25 -40q-40 6 -70 19q-31 13 -62 36q-47 -39 -122 -59q-4 16 -30 36q44 6 76.5 18.5t49.5 28.5q-31 37 -55 104h-21zM680 498q-11 -26 -21 -45h77q-2 -18 -2 -35q0 -16 2 -36h-39v40
h-218v-40h-38q2 18 2 36q0 19 -2 35h183q30 75 30 100l47 -17q-10 -12 -21 -38zM600 567q-77 -6 -143 -14q-4 20 -14 38q68 0 140 7q73 7 110 18q12 -27 21 -43q-35 0 -114 -6zM526 473q-14 -4 -32 -16q-8 24 -35 63q12 6 29 18q18 -24 38 -65zM583 262q33 36 45 79h-90
q19 -55 45 -79zM602 481q-23 -8 -33 -16q-16 43 -29 69q17 10 31 16q11 -27 31 -69z" />
    <glyph glyph-name="uniE630" unicode="&#xe630;" 
d="M280 -5h5h-5zM748 -5h6h-6zM555 216l-1 -1zM689 602h-2h2zM747 -5h-2h2zM689 -5h-2h2zM831 282v-305v-1q0 -8 -6 -14t-14 -6h-606h-1q-8 0 -13 6q-7 6 -6 15v304v2v297v2q0 8 6 14q5 5 13 6h1h484h92q8 0 15 -6q6 -6 6 -14t-6 -13.5t-14 -5.5h-557v-568h566v286q0 8 6 15
q6 5 14 5t14 -5.5t6 -13.5zM904 532q0 8 -6 13.5t-14 5.5q-9 0 -15 -6l-341 -333q0 -1 -1 -1q-5 -5 -5 -13t6 -13.5t14 -5.5t14 5l342 334q6 6 6 14zM554 215l1 1zM555 216l-1 -1zM586 185h-1h1z" />
    <glyph glyph-name="uniE631" unicode="&#xe631;" 
d="M623 527h-175v142l-384 -192l384 -192v142h189q225 0 225 -188q0 -195 -232 -195h-442v-100h446q317 0 317 285q0 298 -328 298z" />
    <glyph glyph-name="uniE632" unicode="&#xe632;" 
d="M960 -128h-896v1024h896v-1024zM896 832h-768v-896h768v896zM320 704h-128v-128h128v128zM320 448h-128v-128h128v128zM320 192h-128v-128h128v128zM832 640h-448v-64h448v64zM832 384h-448v-64h448v64zM832 128h-448v-64h448v64z" />
    <glyph glyph-name="uniE633" unicode="&#xe633;" 
d="M855 628l-316 102q-27 9 -54 0l-316 -102q-20 -7 -32 -24t-12 -38v-224q0 -97 44 -184.5t122 -145.5l183 -134q17 -12 38 -12t38 12l183 134q78 58 122 145.5t44 184.5v224q0 21 -12 38t-32 24zM856 342q0 -87 -39.5 -165.5t-109.5 -129.5l-182 -134q-13 -9 -26 0
l-182 134q-70 52 -109.5 130t-39.5 165v224q0 16 15 21l316 102q6 2 13 2t13 -2l316 -102q15 -5 15 -21v-224zM706 490h-388q-9 0 -15 -6t-6 -15t6 -15.5t15 -6.5h172v-321q0 -9 6.5 -15t15.5 -6t15.5 6t6.5 15v321h172q9 0 15 6.5t6 15.5t-6 15t-15 6z" />
    <glyph glyph-name="uniE634" unicode="&#xe634;" 
d="M923 -212h-822q-29 0 -49 19.5t-20 47.5v473q0 27 20 46.5t49 19.5h822q29 0 49 -19.5t20 -46.5v-473q0 -28 -20 -47.5t-49 -19.5v0zM101 350q-10 0 -16.5 -6.5t-6.5 -15.5v-473q0 -10 6.5 -16.5t16.5 -6.5h822q10 0 16.5 6.5t6.5 16.5v473q0 9 -6.5 15.5t-16.5 6.5h-822
v0zM805 361q-9 0 -16 6.5t-7 15.5v122q0 109 -79 186t-191 77t-191.5 -77t-79.5 -186v-122q0 -9 -6.5 -15.5t-16 -6.5t-16 6.5t-6.5 15.5v122q0 127 92.5 217t223.5 90t223.5 -90t92.5 -217v-122q0 -9 -6.5 -15.5t-16.5 -6.5v0zM580 -57h-137v114q-49 35 -49 93
q0 47 34.5 81t83.5 34t83.5 -33.5t34.5 -81.5q0 -58 -50 -93v-114v0zM489 -12h46v94l12 7q37 20 37 61q0 29 -21 49.5t-51 20.5t-51 -20.5t-21 -49.5q0 -41 37 -61l12 -6v-95v0z" />
    <glyph glyph-name="uniE635" unicode="&#xe635;" 
d="M509 497zM461 497q0 20 14 34t34 14t34 -14t14 -34t-14 -34t-34 -14t-34 14t-14 34zM509 241q20 0 34 14t14 34t-14 34t-34 14t-34 -14t-14 -34t14 -34t34 -14zM509 81zM461 81q0 20 14 34t34 14t34 -14t14 -34t-14 -34t-34 -14t-34 14t-14 34zM509 -163q94 0 179.5 36.5
t147 98.5t98.5 147.5t37 179.5t-37 179.5t-98.5 147.5t-147 98.5t-179.5 36.5t-179.5 -36.5t-147.5 -98.5t-98.5 -147.5t-36.5 -179.5t36.5 -179.5t98.5 -147.5t147.5 -98.5t179.5 -36.5zM509 722q115 0 212.5 -56.5t154 -154t56.5 -212.5t-56.5 -212.5t-154 -154.5
t-212.5 -57t-212.5 57t-154.5 154.5t-57 212.5t57 212.5t154.5 154t212.5 56.5z" />
    <glyph glyph-name="uniE636" unicode="&#xe636;" 
d="M915 -42q-16 0 -19 15q-2 7 -6 19t-21 43.5t-42 57.5q-108 113 -317 118v-161q0 -12 -11 -17.5t-21 1.5l-381 276q-8 6 -8 16t8 16l381 278q10 7 21 1.5t11 -17.5v-172q58 -2 117 -18q119 -31 195 -108q116 -119 113 -329q0 -8 -5.5 -13.5t-12.5 -5.5h-2v0zM490 251
q133 0 232 -41q80 -33 135 -92q17 -18 31 -38q-20 121 -95 198q-37 38 -85.5 63.5t-94 35t-71.5 13t-46 3.5q-3 0 -5 -1q-9 0 -15 6t-6 14v152l-327 -238l327 -237v142q0 9 6 14.5t14 5.5zM490 251z" />
    <glyph glyph-name="uniE637" unicode="&#xe637;" 
d="M542 -1h-7l-7 5q-6 7 -5 18q0 15 2 32t9.5 47t18.5 57t32.5 57.5t50 52.5t71.5 38t96 18v78q-1 13 7 22q13 14 35 5l4 -2l144 -157q15 -17 15 -36q0 -20 -18 -38l-145 -166q-11 -12 -24 -12q-14 0 -21 13q-4 9 -4 23v94q-22 1 -46 -3t-59 -15.5t-69.5 -42t-59.5 -75.5
q-7 -13 -20 -13zM790 184q9 0 26 -2l15 -2v-112l133 152q8 9 8 14t-6 13l-127 139v-97h-18q-53 0 -95.5 -14t-69 -35t-46.5 -50.5t-29.5 -55.5t-15.5 -54q27 32 60 54.5t65 32.5t55 13.5t45 3.5zM790 184zM746 -18q-13 -4 -27 -4h-401q-39 0 -66.5 26t-27.5 65v420
q0 39 27.5 66t66.5 27h401h4h1h3h2h3q1 -1 2 -1h2q1 0 3 -1h1q2 0 3 -1q3 -1 6 -1q31 -11 49 -40q13 -20 14 -45h44v2q0 23 -7 43q-13 38 -46 62.5t-74 25.5h-2h-1h-414q-54 0 -92.5 -38t-38.5 -93v-430q0 -54 38.5 -92.5t92.5 -38.5h413q62 0 101 48h-80zM746 -18zM291 416
h379v-44h-379v44zM291 300h277v-44h-277v44zM291 189h198v-44h-198v44zM188 82q-33 7 -54 31.5t-21 57.5v420q0 39 27 66.5t66 27.5h401h4h1h4q0 -1 1 -1h3h2h2q1 -1 3 -1l1 -1h3h1q2 -1 5 -2q31 -11 49 -39q7 -11 11 -24h46q-2 12 -6 24q-13 38 -45.5 62.5t-74.5 25.5h-2
h-1h-414q-54 0 -92.5 -38.5t-38.5 -92.5v-430q0 -51 34 -88.5t85 -42.5v45z" />
    <glyph glyph-name="uniE638" unicode="&#xe638;" 
d="M183 31h7h-7zM766 31h6h-6zM766 31zM525 306q0 -1 -1 -1zM525 306zM692 786h-3h3zM692 786zM764 31h-3h3zM764 31zM692 31h-3h3zM692 31zM868 388h1v-379v-1q0 -11 -8 -18q-7 -8 -17 -8h-754h-1q-10 1 -17 8q-8 7 -7 18v1v377v4v368v3q0 10 7 17t17 7q0 1 1 1h116h483h3
h67q11 0 19 -8q7 -7 7 -17t-7 -17t-18 -7h-645v-706h128h446h130v355q-1 11 7 19q7 7 17.5 7t18 -7t6.5 -17zM868 388zM959 699q0 10 -7.5 17t-17.5 7q-11 0 -18 -9l-424 -413l-1 -1q-6 -7 -6 -16q0 -10 7 -17.5t17 -7.5t17 7h1l425 415h-1q8 7 8 18zM524 305l1 1
q0 -1 -1 -1zM524 305zM525 306q0 -1 -1 -1zM525 306zM564 268l-1 -1q1 0 1 1zM564 268z" />
    <glyph glyph-name="uniE639" unicode="&#xe639;" 
d="M746 609l173 -172q9 -9 9 -22t-9 -22t-23 -9h-736v-416q0 -13 -9.5 -22.5t-22.5 -9.5t-22.5 9.5t-9.5 22.5v832q0 13 9.5 22.5t22.5 9.5h768q13 -1 21 -9q9 -9 9 -21.5t-9 -21.5zM160 768v-320h660l-137 138h-1l-1 1q-9 9 -9 22t9 22q1 0 2 1l1 1l135 135h-659z" />
    <glyph glyph-name="uniE63A" unicode="&#xe63a;" 
d="M512 896q-139 0 -257 -68.5t-186.5 -186.5t-68.5 -257t68.5 -257t186.5 -186.5t257 -68.5t257 68.5t186.5 186.5t68.5 257t-68.5 257t-186.5 186.5t-257 68.5v0zM836 63q-64 -63 -146 -98q-84 -36 -178 -36q-92 0 -178 36q-81 34 -146 98q-64 64 -98 146q-36 84 -36 179
q0 92 36 178q35 83 98 146q65 64 146 98q84 36 178 36q92 0 178 -36q81 -34 146 -98q63 -63 98 -146q36 -84 36 -178q0 -93 -36 -179q-34 -82 -98 -146v0zM739 430h-188v206q0 23 -34 24q-16 2 -25 -5.5t-9 -18.5v-206h-198q-1 -1 -4.5 -0.5t-9 -1t-11 -3.5t-9.5 -8t-4 -15
q0 -14 2.5 -23t7.5 -12.5t9 -4.5t11 -1h207v-217v-6v-6q0 -1 0.5 -5t1 -6t2 -5t4 -4.5t6 -3.5t8 -2.5t10.5 -0.5q35 0 35 42l1 214h188q42 0 43 36q0 17 -11 25t-22 8h-11z" />
    <glyph glyph-name="uniE63B" unicode="&#xe63b;" 
d="M512 812q-139 0 -257 -68.5t-186.5 -186.5t-68.5 -257t68.5 -257t186.5 -186.5t257 -68.5t257 68.5t186.5 186.5t68.5 257t-68.5 257t-186.5 186.5t-257 68.5zM731 121l-40 -40l-179 179l-179 -179l-40 40l179 179l-179 179l40 40l179 -179l179 179l40 -40l-179 -179z
" />
    <glyph glyph-name="uniE63C" unicode="&#xe63c;" 
d="M813 691h-603q-23 0 -39.5 -16t-16.5 -39v-395q0 -23 16.5 -39t39.5 -16h408q7 -9 22.5 -34.5t28 -46t14.5 -23.5q3 -5 8 -5t7 5q8 15 65 104h51q23 0 39.5 16t16.5 39v395q-1 24 -17.5 39.5t-39.5 15.5zM835 239q0 -9 -7 -15.5t-15 -6.5h-603q-9 0 -15.5 6.5t-6.5 15.5
v397q0 9 6.5 16t15.5 7h603q8 0 15 -7t7 -16v-397zM276 493h470v32h-470v-32zM276 373h470v32h-470v-32z" />
    <glyph glyph-name="uniE63D" unicode="&#xe63d;" 
d="M876 832h-728q-35 0 -59.5 -24.5t-24.5 -59.5v-728q0 -35 24.5 -59.5t59.5 -24.5h728q35 0 59.5 24.5t24.5 59.5v728q0 35 -24.5 59.5t-59.5 24.5zM148 772h729q10 0 16.5 -7t6.5 -17v-118h-776v118q0 10 7 17t17 7zM876 -4h-728q-10 0 -17 7t-7 17v581h776v-581
q0 -10 -7 -17t-17 -7zM818 362h-299q-9 0 -15.5 6.5t-6.5 15.5t6.5 15.5t16.5 6.5h298q9 0 16 -6.5t7 -15.5t-7 -15.5t-16 -6.5zM818 190h-299q-9 0 -15.5 6.5t-6.5 16t6.5 16t15.5 6.5h299q9 0 16 -6.5t7 -16t-7 -16t-16 -6.5zM818 63h-299q-9 0 -15.5 6.5t-6.5 16t6.5 16
t15.5 6.5h299q9 0 16 -6.5t7 -16t-7 -16t-16 -6.5zM796 735h67v-67h-67v67zM661 735h68v-67h-68v67zM281 250h67v-68h-67v68zM281 123h67v-68h-67v68zM519 735h68v-67h-68v67zM321 314q-9 0 -16 7l-88 86q-6 6 -6.5 15.5t6 16t16 6.5t16.5 -6l68 -68l111 160q5 8 14.5 9.5
t17 -3.5t9 -14.5t-3.5 -16.5l-126 -182q-6 -9 -16 -9zM321 314z" />
    <glyph glyph-name="uniE63E" unicode="&#xe63e;" 
d="M883 -66h-742l-5 3q-29 16 -42 27q-33 27 -32 69v8q0 29 4 44q11 39 63 81q51 39 133 75q41 17 90 34q23 8 37 39q11 23 6 40l-2 2q-35 42 -55 77t-30 85q-17 88 5 164q36 118 145 145q16 4 32 6v1h43v-1q16 -2 32 -6q109 -27 145 -145q23 -76 5 -164q-10 -50 -30 -85
t-55 -77l-1 -2q-6 -17 5 -40q14 -31 37 -39q49 -17 90 -34q83 -36 133 -75q52 -42 63 -81q4 -15 4 -44v-8q1 -42 -32 -69q-13 -11 -41 -27zM511 791q-21 0 -43 -6q-85 -21 -114 -116q-19 -65 -4 -143q9 -41 25.5 -71t50.5 -72q6 -7 8 -12q13 -34 -6 -75q-22 -47 -62 -61
q-47 -17 -87 -34q-77 -33 -123 -69q-42 -32 -48 -58q-3 -10 -3 -34v-7q-1 -22 16 -36q9 -7 31 -20h719q23 13 31 20q17 14 16 35v8q0 24 -3 34q-6 26 -47 58q-46 36 -124 69q-39 17 -87 34q-40 14 -62 61q-19 41 -6 75q2 5 7 11q35 42 51.5 72.5t25.5 71.5q15 78 -4 143
q-29 95 -114 116q-22 6 -43 6h-1z" />
    <glyph glyph-name="uniE63F" unicode="&#xe63f;" 
d="M344 797h-175q-44 0 -75 -31t-31 -75v-175q0 -46 26 -77t68 -31h188q43 0 75 32t32 76v174q0 43 -32 75t-76 32zM412 516q-1 -3 -2 -7.5t-6.5 -16t-12.5 -20.5t-19.5 -16t-26.5 -7h-188q-14 0 -34 25.5t-20 41.5v174q0 31 19 49t49 18h174q32 0 49.5 -17.5t17.5 -49.5
v-174zM344 328h-175q-44 0 -75 -31t-31 -75v-176q0 -45 26 -76t68 -31h188q43 0 75 32t32 75v175q0 43 -32 75t-76 32zM412 46q-1 -2 -2 -6.5t-6.5 -16.5t-12.5 -20.5t-19.5 -16t-26.5 -7.5h-188q-14 0 -34 26t-20 41v175q0 31 19 49t49 18h174q32 0 49.5 -18t17.5 -49v-175
zM813 328h-175q-44 0 -74.5 -31t-30.5 -75v-176q0 -45 25.5 -76t67.5 -31h188q44 0 75.5 32t31.5 75v175q0 43 -32 75t-76 32zM881 46q0 -2 -1.5 -6.5t-7 -16.5t-12.5 -20.5t-19.5 -16t-26.5 -7.5h-188q-14 0 -33.5 26t-19.5 41v175q0 31 18.5 49t48.5 18h174q33 0 50 -18
t17 -49v-175zM926 679l-123 123q-31 31 -76 30.5t-76 -31.5l-124 -124q-31 -31 -31 -74.5t31 -74.5l124 -124q32 -32 71 -36t71 26l133 133q31 31 31 76t-31 76zM898 555l-133 -132q-11 -10 -43 -6t-42 15l-124 123q-22 24 -21.5 49t21.5 46l124 123q47 48 94 0l124 -123
l3 -6t7 -17t5.5 -22.5t-2 -25.5t-13.5 -24z" />
    <glyph glyph-name="uniE640" unicode="&#xe640;" 
d="M512.5 784q-98.5 0 -188.5 -38.5t-154.5 -103t-103 -154.5t-38.5 -188.5t38.5 -188t103 -154t154 -103t188 -38.5t188.5 38.5t154.5 103t103 154t38.5 188t-38.5 188.5t-103 154.5t-154 103t-188 38.5zM512 -141q-90 0 -171.5 35t-140.5 94t-94 140.5t-35 171.5t35 171.5
t94 140.5t140.5 94t171.5 35t171.5 -35t140.5 -94t94 -140.5t35 -171.5t-35 -171.5t-94 -140.5t-140.5 -94t-171.5 -35zM606 30l-266 266l266 267l46 -46l-221 -221l221 -220z" />
    <glyph glyph-name="uniE641" unicode="&#xe641;" 
d="M290 491h245v-32h-245v32zM290 343h245v-32h-245v32zM290 196h444v-32h-444v32zM290 48h444v-32h-444v32zM909 530v2q-2 5 -4 7l-268 268q-3 3 -7 4q-1 1 -2 1h-2h-395q-48 0 -82 -34t-34 -82v-792q0 -48 34 -82t82 -34h562q48 0 82 34t34 82v624v1v1zM855 544h-129
q-35 0 -59.5 24.5t-24.5 59.5v129zM793 -180h-562q-35 0 -59.5 24.5t-24.5 59.5v792q0 35 24.5 59.5t59.5 24.5h379v-152q0 -48 34 -82t82 -34h151v-608q0 -35 -24.5 -59.5t-59.5 -24.5z" />
    <glyph glyph-name="uniE642" unicode="&#xe642;" 
d="M710 300l-473 474l38 38l512 -512l-512 -512l-38 38z" />
    <glyph glyph-name="uniE643" unicode="&#xe643;" 
d="M361 237h-274q-36 0 -61.5 -25t-25.5 -61v-275q0 -36 25.5 -61.5t61.5 -25.5h274q36 0 61.5 25.5t25.5 61.5v275q0 36 -25.5 61t-61.5 25zM383 -104q0 -18 -13 -30.5t-31 -12.5h-230q-18 0 -31 12.5t-13 30.5v232q0 18 13 30.5t31 12.5h230q18 0 31 -12.5t13 -30.5v-232z
M936 237h-272q-36 0 -61 -25t-25 -61v-275q0 -36 25 -61.5t61 -25.5h272q36 0 61.5 25.5t25.5 61.5v275q0 36 -25.5 61t-61.5 25zM936 812h-272q-36 0 -61 -25.5t-25 -61.5v-274q0 -36 25 -61.5t61 -25.5h272q36 0 61.5 25.5t25.5 61.5v274q0 36 -25.5 61.5t-61.5 25.5z
M957 471q0 -18 -12.5 -31t-30.5 -13h-231q-18 0 -30.5 13t-12.5 31v233q0 17 12.5 30t30.5 13h231q18 0 30.5 -13t12.5 -30v-233zM361 812h-274q-36 0 -61.5 -25.5t-25.5 -61.5v-274q0 -36 25.5 -61.5t61.5 -25.5h274q36 0 61.5 25.5t25.5 61.5v274q0 36 -25.5 61.5
t-61.5 25.5zM383 471q0 -18 -13 -31t-31 -13h-230q-18 0 -31 13t-13 31v233q0 17 13 30t31 13h230q18 0 31 -13t13 -30v-233z" />
    <glyph glyph-name="uniE644" unicode="&#xe644;" 
d="M915 812h-740q-40 0 -68 -28t-28 -68v-111q-27 0 -46.5 -19.5t-19.5 -47t19.5 -47t46.5 -19.5v-105q-27 -1 -46.5 -20.5t-19.5 -47t19.5 -47t46.5 -19.5v-105q-27 0 -46.5 -19.5t-19.5 -47t19.5 -47.5t46.5 -20v-110q0 -39 28 -67.5t68 -28.5h740q40 0 68 28.5t28 67.5
v832q0 40 -28 68t-68 28zM79 26q-14 0 -24 10.5t-10 24.5t10 24.5t24 10.5v-70zM79 265q-14 0 -24 10t-10 24.5t10 24.5t24 11v-70zM79 504q-14 0 -24 10t-10 24.5t10 24.5t24 10v-69zM979 -116q0 -26 -18.5 -45t-45.5 -19h-740q-26 0 -45 19t-19 45v832q0 27 19 45.5
t45 18.5h740q27 0 45.5 -18.5t18.5 -45.5v-832zM290 540h510v32h-510v-32zM290 28h510v32h-510v-32zM290 284h510v32h-510v-32z" />
    <glyph glyph-name="uniE645" unicode="&#xe645;" 
d="M605 454h120v49h-297v-49h122v-177h-144v-46h144v-164h55v164h141v46h-141v177zM375 164v207h-99v-49h49v-158q0 -29 -18 -44l33 -43q4 4 12 10l15 15q47 33 76 53q-8 21 -13 52zM400 442q-33 42 -68 82l-42 -27q37 -41 66 -86zM630 330l43 -24q31 47 58 98l-47 19
q-21 -45 -54 -93zM467 423l-43 -21q29 -43 54 -94l45 24q-18 33 -56 91zM510 748q-91 0 -173.5 -35t-142.5 -95t-95 -142.5t-35 -173.5t35 -174t95 -142.5t142.5 -95t173.5 -35.5t174 35.5t142.5 95t95 142.5t35.5 174t-35.5 173.5t-95 142.5t-142.5 95t-174 35zM808 4
q-58 -58 -134 -90q-78 -33 -163.5 -33t-164.5 33q-75 32 -133.5 90t-90.5 134q-33 78 -33 163.5t33 164.5q32 75 90.5 133.5t133.5 90.5q79 33 164.5 33t163.5 -33q76 -32 134 -90.5t90 -133.5q33 -79 33 -164.5t-33 -163.5q-32 -76 -90 -134z" />
    <glyph glyph-name="uniE646" unicode="&#xe646;" 
d="M893 756h-751q-35 0 -60 -25.5t-25 -60.5v-751q0 -35 25 -60t60 -25h751q35 0 60 25t25 60v751q0 36 -25 61t-60 25zM944 -81q0 -21 -15 -36t-36 -15h-751q-21 0 -36 15t-15 36v751q0 21 15 36t36 15h751q21 0 36 -15t15 -36v-751zM841 504v1t-1 1q0 1 -1 3q-2 2 -2 3h-1
v1h-2q-2 2 -3 2.5t-3 0.5h-2l-1 1h-184q-7 0 -12 -5t-5 -12.5t5 -12.5t12 -5h146l-240 -265l-184 170l-165 -183q-5 -5 -4.5 -12.5t5.5 -12t12 -4t12 5.5l142 158l185 -171l258 287v-160q0 -7 5 -12t12 -5t12 5t5 12v205zM825 107h-615q-7 0 -12 -5t-5 -12t5 -12t12 -5h615
q7 0 12 5t5 12t-5 12t-12 5z" />
    <glyph glyph-name="uniE647" unicode="&#xe647;" 
d="M757.5 -88q-46.5 0 -79.5 33t-33 80v13h-194q-4 -2 -8 -2h-62q-5 -43 -37 -71.5t-75 -28.5t-75 28.5t-37 71.5h-61q-8 0 -13.5 5t-5.5 13v290q0 5 3 10l99 163q36 56 104 56h141q3 51 40.5 87t88.5 36h277q53 0 91 -38t38 -91v-428q0 -39 -26 -68t-64 -33v-13
q0 -47 -32.5 -80t-79 -33zM757 100q-31 0 -53 -22t-22 -53t22 -53.5t53 -22.5t53 22.5t22 53.5t-22 53t-53 22zM269 124q-31 0 -53 -22.5t-22 -53.5t22 -53t53 -22t53 22t22 53t-22 53.5t-53 22.5zM269 161q40 0 70.5 -25t39.5 -63h2h43v462h-141q-48 0 -72 -38l-97 -158
v-266h45q9 38 39.5 63t70.5 25zM462 75h195q14 28 41 45t59 17t59 -17t42 -45q26 0 45 19t19 45v428q0 38 -27 64.5t-65 26.5h-277q-37 0 -64 -26.5t-27 -64.5v-492zM310 321h-119q-8 0 -13.5 5.5t-5.5 13t5.5 13t13.5 5.5h100v101q0 7 5.5 12.5t13.5 5.5t13 -5.5t5 -12.5
v-119q0 -8 -5 -13.5t-13 -5.5z" />
    <glyph glyph-name="uniE648" unicode="&#xe648;" 
d="M546 -95h-412q-6 0 -10.5 4.5t-4.5 10.5v760q0 6 4.5 10.5t10.5 4.5h412q7 0 11.5 -4.5t4.5 -10.5v-760q0 -6 -4.5 -10.5t-11.5 -4.5zM149 -64h382v728h-382v-728zM890 -95h-344q-6 0 -10.5 4.5t-4.5 10.5v553q0 6 4.5 10.5t10.5 4.5h344q6 0 10.5 -4.5t4.5 -10.5v-553
q0 -6 -4.5 -10.5t-10.5 -4.5zM562 -64h313v521h-313v-521zM256 542h31v-346h-31v346zM394 542h30v-346h-30v346zM787 -95h-138q-6 0 -10.5 4.5t-4.5 10.5v138q0 7 4.5 11.5t10.5 4.5h138q6 0 10.5 -4.5t4.5 -11.5v-138q0 -6 -4.5 -10.5t-10.5 -4.5zM665 -64h107v107h-107
v-107zM409 -95h-137q-7 0 -11.5 4.5t-4.5 10.5v138q0 7 4.5 11.5t11.5 4.5h137q6 0 10.5 -4.5t4.5 -11.5v-138q0 -6 -4.5 -10.5t-10.5 -4.5zM287 -64h107v107h-107v-107zM649 212h138v-31h-138v31zM649 350h138v-31h-138v31z" />
    <glyph glyph-name="uniE649" unicode="&#xe649;" 
d="M904 -147h-784q-23 0 -39.5 16.5t-16.5 39.5v553q0 23 4 35l62 203q5 18 20.5 30t32.5 12h658q17 0 32.5 -12t20.5 -30l62 -203q4 -12 4 -35v-553q0 -23 -16.5 -39.5t-39.5 -16.5zM183 710q-7 0 -14 -6t-9 -13l-62 -203q-2 -8 -2 -26v-553q0 -10 7 -17t17 -7h784
q10 0 17 7t7 17v553q0 18 -2 26l-62 203q-2 7 -9 13t-14 6h-658zM955 452q0 -1 -2 -1h-874q-2 0 -2 1v29q0 1 2 1h874q2 0 2 -1v-29zM861 215q0 -7 -4.5 -11.5t-10.5 -4.5h-318q-7 0 -11.5 4.5t-4.5 11.5q0 6 4.5 10.5t11.5 4.5h318q6 0 10.5 -4.5t4.5 -10.5zM861 94
q0 -7 -4.5 -11.5t-10.5 -4.5h-217q-7 0 -11.5 4.5t-4.5 11.5q0 6 4.5 10.5t11.5 4.5h217q6 0 10.5 -4.5t4.5 -10.5z" />
    <glyph glyph-name="uniE64A" unicode="&#xe64a;" 
d="M887 646h-748q-31 0 -53 -22t-22 -53v-636q0 -30 22 -52t53 -22h748q31 0 52.5 22t21.5 52v636q0 31 -21.5 53t-52.5 22zM924 -65q0 -15 -11 -26t-26 -11h-748q-16 0 -26.5 11t-10.5 26v636q0 16 10.5 26.5t26.5 10.5h748q15 0 26 -10.5t11 -26.5v-636zM102 422h822v-38
h-822v38zM232 235h225q7 0 12.5 -5.5t5.5 -13.5t-5.5 -13.5t-12.5 -5.5h-225q-7 0 -12.5 5.5t-5.5 13.5t5.5 13.5t12.5 5.5zM232 85h225q7 0 12.5 -5.5t5.5 -13t-5.5 -13t-12.5 -5.5h-225q-7 0 -12.5 5.5t-5.5 13t5.5 13t12.5 5.5zM569 235h224q8 0 13.5 -5.5t5.5 -13.5
t-5.5 -13.5t-13.5 -5.5h-224q-8 0 -13.5 5.5t-5.5 13.5t5.5 13.5t13.5 5.5zM569 85h224q8 0 13.5 -5.5t5.5 -13t-5.5 -13t-13.5 -5.5h-224q-8 0 -13.5 5.5t-5.5 13t5.5 13t13.5 5.5zM270 758q8 0 13 -5.5t5 -13.5v-93h-37v93q0 8 5.5 13.5t13.5 5.5zM756 758q8 0 13 -5.5
t5 -13.5v-93h-37v93q0 8 5.5 13.5t13.5 5.5z" />
    <glyph glyph-name="uniE64B" unicode="&#xe64b;" 
d="M277 471h470q9 0 15 6t6 15t-6 15t-15 6h-470q-9 0 -15 -6t-6 -15t6 -15t15 -6zM277 343h470q9 0 15 6t6 15t-6 15t-15 6h-470q-9 0 -15 -6t-6 -15t6 -15t15 -6zM277 215h470q9 0 15 6t6 15t-6 15t-15 6h-470q-9 0 -15 -6t-6 -15t6 -15t15 -6zM277 87h470q9 0 15 6t6 15
t-6 15t-15 6h-470q-9 0 -15 -6t-6 -15t6 -15t15 -6zM347 734zM729 734zM832 769h-640q-26 0 -45 -18.5t-19 -45.5v-784q0 -27 19 -45.5t45 -18.5h393q60 -1 86 -22q5 -4 11 -4q8 0 14 6q4 6 3.5 13t-6.5 12q-36 29 -108 30h-393q-12 0 -20.5 8.5t-8.5 20.5v784
q0 12 8.5 20.5t20.5 8.5h155q33 -4 46 -33q2 -8 6 -17t18 -22t34 -16h1h172h2q19 3 33 16t18.5 22t6.5 17q12 29 45 33h103q12 0 20.5 -8.5t8.5 -20.5v-784q0 -12 -8.5 -20.5t-20.5 -8.5h-86q-7 0 -12 -5t-5 -12.5t5 -12.5t12 -5h86q26 0 45 18.5t19 45.5v784q0 27 -19 45.5
t-45 18.5zM651 714l-1 -2v-2q-1 -2 -2.5 -6.5t-9 -12.5t-17.5 -10h-166q-23 5 -28 29l-1 2v2q-5 11 -12 20h248q-7 -9 -11 -20z" />
    <glyph glyph-name="uniE64C" unicode="&#xe64c;" 
d="M517 -96q-63 0 -140 42q-48 26 -149 98l-14 11q-119 86 -168 155l-1 1q-7 10 -4 36l1 2v425v1q-2 16 6 28q12 21 48.5 48.5t78.5 45.5q45 19 76 30.5t101.5 24t151.5 12.5q112 0 234 -32q87 -24 134 -48q5 -3 16 -9h1q70 -36 84 -53q13 -18 10 -49v-1v-379v-17
q0 -50 -3 -55q-15 -31 -79 -80q-28 -21 -62 -21t-61 18l-1 1l-212 107l-10 -14q-20 -27 -67 -56q-44 -28 -144 -51l-12 26q34 5 71 17q100 33 136 88q24 36 26 118h23q-1 -32 -3 -52q-2 -17 -8 -39l-5 -18l16 -7q75 -34 136 -64q16 -7 40 -19q31 -15 44.5 -20t28.5 -5h6
q19 1 44.5 19t38.5 31.5t23 25.5l5 6v456v7l-1 8l-5 5q-4 3 -18 12l-3 2q-19 12 -45 25t-72 31.5t-110.5 33t-134.5 20.5q-38 3 -74 3q-199 0 -342 -84q-58 -34 -77 -63l-3 -5v-456l4 -5q16 -23 22 -30t25.5 -25.5t63.5 -54.5t92 -68q87 -61 143 -86.5t99 -25.5q30 0 67 12
q73 22 174 110l18 -21q-11 -10 -32 -27l-2 -1q-102 -82 -190 -98q-18 -3 -36 -3zM220 149q25 46 41 102q19 65 19 200v248q124 1 265 7q95 4 239 16l9 -25q-118 -7 -187 -11l-20 -1v-106h208v-23h-208v-100h168v-198h-26v178h-307v-178h-26v198h165v100h-200v23h200v105
l-21 -1q-76 -3 -213 -6h-20v-170q0 -181 -19 -261q-14 -57 -45 -115z" />
    <glyph glyph-name="uniE64D" unicode="&#xe64d;" 
d="M613 -36v36h158q68 0 116.5 48t48.5 117v365q0 68 -48.5 116.5t-116.5 48.5h-665l43 -43q3 -3 3 -7t-3 -7l-9 -10q-3 -3 -7.5 -3t-7.5 3l-66 67h-8v8q-5 5 -2 12q-3 6 2 11v4h4l75 76q3 3 7.5 3t7.5 -3l10 -10q8 -8 0 -15l-50 -51h666q83 0 141.5 -58.5t58.5 -141.5v-365
q0 -83 -58.5 -142t-141.5 -59h-158zM500 -36v36h92v-36h-92zM388 -36v36h92v-36h-92zM275 -36v36h92v-36h-92zM163 -36v36h92v-36h-92zM51 -36v36h91v-36h-91zM290 147v281h-43v162h514v-162h-43v-281h-428zM683 182v246h-358v-246h358zM725 463v92h-442v-92h442zM448 273
q-19 0 -32.5 13.5t-13.5 32.5v14q0 19 13.5 32.5t32.5 13.5h112q19 0 32.5 -13.5t13.5 -32.5v-14q0 -19 -13.5 -32.5t-32.5 -13.5h-112zM455 344q-7 0 -12.5 -5.5t-5.5 -12.5t5.5 -12t12.5 -5h98q7 0 12.5 5t5.5 12t-5.5 12.5t-12.5 5.5h-98z" />
    <glyph glyph-name="uniE64E" unicode="&#xe64e;" 
d="M592 -71v405v14l10 10l387 420v83h-954v-83l419 -419l11 -10v-15v-341zM628 -128l-199 99v363l-429 430v132h1024v-132l-396 -430v-462v0z" />
    <glyph glyph-name="uniE64F" unicode="&#xe64f;" 
d="M768 -34q-7 1 -18.5 4t-41 13.5t-52 23t-41 33.5t-18.5 45q0 66 34 180q111 25 200.5 103t141 194.5t51.5 248.5q0 35 -25 60t-60 25h-401h-410q-35 0 -60 -25t-25 -60q0 -132 51.5 -248.5t141 -194.5t199.5 -103q34 -126 34 -180q0 -24 -18.5 -45t-41 -33.5t-51.5 -23
t-40.5 -13.5t-18.5 -4q-17 -3 -35.5 -17.5t-24.5 -29.5l-26 -47h640l-25 47q-7 16 -24 30t-36 17zM811 811h128q0 -139 -63.5 -253.5t-167.5 -169.5q44 77 72 188t31 235zM128 811h128q3 -124 31 -235t71 -188q-103 55 -166.5 169.5t-63.5 253.5z" />
    <glyph glyph-name="uniE650" unicode="&#xe650;" 
d="M957 419h-756l363 363l-50 50l-448 -447l1 -2l446 -446l50 50l-361 362h755v70z" />
    <glyph glyph-name="uniE651" unicode="&#xe651;" 
d="M915 675h-110v89q0 33 -16.5 57.5t-44.5 24.5h-441q-30 0 -57.5 -26t-27.5 -56v-89h-86q-30 0 -57.5 -26t-27.5 -56v-269q0 -29 26 -46.5t59 -17.5h86v-275q0 -28 26 -45.5t59 -17.5h441q61 0 61 63v275h110q30 0 46 16.5t16 47.5v269q0 32 -16.5 57t-45.5 25zM267 764
q0 10 13 22t23 12h441q12 0 12 -31v-3v-89h-489v89zM756 -5q0 -10 -7 -17.5t-17 -7.5h-441q-10 0 -17 7.5t-7 17.5v362q0 11 7 18t17 7h441q10 0 17 -7t7 -18v-362zM927 324v-4q0 -8 -1.5 -9.5t-10.5 -1.5h-110v39q0 33 -16.5 58t-44.5 25h-441q-30 0 -57.5 -26.5
t-27.5 -56.5v-39h-86q-36 0 -36 15v269q0 10 13 21.5t23 11.5h783q2 0 4 -0.5t3 -1.5l2 -4q1 -1 1.5 -3.5t1 -4t0.5 -4.5v-6v-4v-5v-269zM685 274h-342q-10 0 -17.5 -7t-7.5 -17t7.5 -17t17.5 -7h342q10 0 17.5 6.5t7.5 17t-7.5 17.5t-17.5 7zM685 132h-342q-10 0 -17.5 -7
t-7.5 -17t7.5 -17.5t17.5 -7.5h342q10 0 17.5 7.5t7.5 17.5t-7.5 17t-17.5 7zM834 566zM798 565.5q0 14.5 10.5 25.5t25 11t25.5 -11t11 -25.5t-11 -25t-25.5 -10.5t-25 10.5t-10.5 25z" />
    <glyph glyph-name="uniE652" unicode="&#xe652;" 
d="M772 629v71h-459l270 -290q13 -14 12.5 -32.5t-13.5 -32.5l-266 -277h456v43q0 19 13.5 32.5t33 13.5t33 -13.5t13.5 -32.5v-90q0 -19 -13.5 -33t-33.5 -14h-612q-31 0 -43.5 28.5t9.5 51.5l312 324l-313 337q-21 22 -8.5 50.5t43.5 28.5h612q20 0 33.5 -14t13.5 -33
v-118q0 -19 -13.5 -32.5t-33 -13.5t-33 13.5t-13.5 32.5z" />
    <glyph glyph-name="uniE653" unicode="&#xe653;" 
d="M730 695.5q-85 85.5 -206 85.5t-206.5 -85.5t-85.5 -206.5q0 -79 40 -148q35 -59 93 -96v-143q0 -27 19.5 -47t47.5 -20h183q28 0 47.5 20t19.5 47v142q58 38 93 97q40 68 40 148q0 121 -85 206.5zM615 86h-183q-7 0 -11.5 5t-4.5 11v61h215v-61q0 -6 -4.5 -11t-11.5 -5z
M731 367q-32 -54 -87 -86l-13 -8v-59h-215v60l-13 7q-55 32 -87 86q-33 57 -33 122q0 100 70.5 170.5t170 70.5t170 -70.5t70.5 -170.5q0 -66 -33 -122zM612 3h-177q-11 0 -18.5 -7.5t-7.5 -18t7.5 -18t18.5 -7.5h177q11 0 18.5 7.5t7.5 18t-7.5 18t-18.5 7.5zM218 706z" />
    <glyph glyph-name="uniE654" unicode="&#xe654;" 
d="M958 98v-44q-9 -19 -26 -16q-7 1 -12.5 10.5t-10.5 25.5t-7 20q-94 200 -394 212v-105q0 -5 0.5 -20t0.5 -24t-1.5 -20t-6 -16.5t-12.5 -6.5q-9 -1 -31 15q-118 84 -348 253q-3 2 -13 8.5t-16.5 11.5t-12.5 12t-6 14q0 11 20 25q43 32 174 126.5t203 148.5q22 16 32 14
q7 -1 11.5 -7.5t5.5 -18t1 -21t-0.5 -24.5t-0.5 -21v-110q425 -34 450 -442zM119 427q62 -45 177.5 -128.5t159.5 -114.5q1 0 2.5 -2.5t3.5 -3t4 0.5v117q0 37 1 40q4 13 35 13.5t51 -3.5q234 -18 348 -167q1 -1 2.5 -4t2.5 -4.5t3 -0.5q-16 83 -50 141t-90 100
q-100 74 -247 86h-14q-8 0 -17 0.5t-14 2.5q-3 1 -5.5 4.5t-4 6.5t-2 8.5t-0.5 9t0.5 11.5t0.5 12q0 111 -1 128q-43 -32 -162.5 -118.5t-183.5 -134.5z" />
    <glyph glyph-name="uniE655" unicode="&#xe655;" 
d="M762 881q-25 26 -45 5l-626 -630q-5 -5 -12.5 -16.5t-7.5 -16.5l-70 -298q-5 -21 13 -39q12 -12 27 -14q6 -1 11 1l321 58q10 2 21 17q3 3 2 4q-1 0 -2 -1l620 626q10 9 9.5 25t-12.5 28zM286 -24l-236 -54l59 235zM131 216l606 609l222 -223l-606 -610z" />
    <glyph glyph-name="uniE656" unicode="&#xe656;" 
d="M15 11h27l49 81q97 154 197 198q55 25 104 37.5t120 14.5v-207l497 332l-497 331v-208q-122 -5 -212 -40.5t-159 -104.5q-128 -129 -126 -344v-7v-83zM553 550v167l384 -250l-384 -251v168q-181 0 -294 -60t-203 -213q-1 9 -0.5 25t8.5 61.5t23.5 87t52 92t87.5 87
t135.5 61.5t190.5 25z" />
    <glyph glyph-name="uniE657" unicode="&#xe657;" 
d="M957 171q0 1 -1 3t-3 4q-4 5 -9 8v2q0 1 1 1h-293q-12 0 -20 -8t-8 -20t8 -20t20 -8h213q-48 -101 -143 -162.5t-210 -61.5q-147 0 -257 96.5t-130 239.5h-57q14 -109 76 -198.5t159 -141.5t209 -52q124 0 228.5 63t162.5 168v-203q0 -11 8.5 -19.5t20 -8.5t19.5 8.5
t8 19.5v280q0 4 -2 10zM80 416v-2l-1 -1h293q12 0 20 8t8 19.5t-8 20t-20 8.5h-214q48 101 143.5 162t210.5 61q147 0 256.5 -96t130.5 -239h56q-13 109 -75 198.5t-159 141t-209 51.5q-124 0 -228.5 -63t-163.5 -168v203q0 12 -8 20t-19.5 8t-20 -8t-8.5 -20v-279
q0 -5 2 -10q1 -1 2 -3t3 -4q4 -5 9 -8z" />
    <glyph glyph-name="uniE658" unicode="&#xe658;" 
d="M378 -38q-22 0 -38 15l-319 311q-16 16 -16 38t16 37.5t38.5 15.5t38.5 -16l280 -274l548 535q16 15 38.5 15t38 -15.5t15.5 -37.5t-15 -37l-586 -572q-16 -15 -39 -15z" />
    <glyph glyph-name="uniE659" unicode="&#xe659;" 
d="M25 367q0 98 38 187t102.5 153.5t154 103t187.5 38.5t187.5 -38.5t154 -103t102.5 -153.5t38 -187t-38 -187.5t-102.5 -154t-154 -102.5t-187.5 -38t-187.5 38t-154 102.5t-102.5 154t-38 187.5zM326 577l-30 -30l181 -180l-181 -181l30 -30l181 181l181 -181l30 30
l-181 181l181 180l-30 30l-181 -180z" />
    <glyph glyph-name="uniE65A" unicode="&#xe65a;" 
d="M971 469l-557 -559q-29 -29 -70 -29l-259 -1q-78 0 -78 77v257q0 41 29 70l559 561q45 44 108 44t108 -44l160 -162q45 -44 45 -107t-45 -107zM85 205v-248l249 2q21 0 36 15l403 403l-269 268l-404 -404q-15 -15 -15 -36zM918 629l-161 162q-22 22 -53.5 22t-53.5 -22
l-89 -89l269 -268l88 88q22 22 22 53.5t-22 53.5z" />
    <glyph glyph-name="uniE65B" unicode="&#xe65b;" 
d="M902 780h-780q-37 0 -63.5 -26.5t-26.5 -63.5v-780q0 -37 26.5 -63.5t63.5 -26.5h780q37 0 63.5 26.5t26.5 63.5v780q0 37 -26.5 63.5t-63.5 26.5zM122 716h781q11 0 18 -7.5t7 -18.5v-126h-832v126q0 11 7.5 18.5t18.5 7.5zM902 -116h-780q-11 0 -18.5 7.5t-7.5 18.5
v622h832v-622q0 -11 -7.5 -18.5t-18.5 -7.5zM816 676h72v-72h-72v72zM672 676h72v-72h-72v72zM520 676h72v-72h-72v72zM608 252h-376q-7 0 -11.5 4.5t-4.5 11.5v144q0 7 4.5 11.5t11.5 4.5h376q7 0 11.5 -4.5t4.5 -11.5v-144q0 -7 -4.5 -11.5t-11.5 -4.5zM248 284h344v112
h-344v-112zM856 -4h-216q-7 0 -11.5 4.5t-4.5 11.5v144q0 7 4.5 11.5t11.5 4.5h216q7 0 11.5 -4.5t4.5 -11.5v-144q0 -7 -4.5 -11.5t-11.5 -4.5zM656 28h184v112h-184v-112zM448 -4h-216q-7 0 -11.5 4.5t-4.5 11.5v144q0 7 4.5 11.5t11.5 4.5h216q7 0 11.5 -4.5t4.5 -11.5
v-144q0 -7 -4.5 -11.5t-11.5 -4.5zM248 28h184v112h-184v-112zM784 204q-7 0 -11.5 4.5t-4.5 11.5v104h-96q-7 0 -11.5 4.5t-4.5 11.5t4.5 11.5t11.5 4.5h112q7 0 11.5 -4.5t4.5 -11.5v-120q0 -7 -4.5 -11.5t-11.5 -4.5zM448 100h192v-32h-192v32z" />
    <glyph glyph-name="uniE65C" unicode="&#xe65c;" 
d="M683 -212h-512q-25 0 -39 21.5t0 42.5l256 384q13 19 36.5 19t36.5 -19l252 -380q12 -13 12 -30q0 -16 -11.5 -27t-30.5 -11zM252 -127h354l-179 265zM981 87h-341q-19 0 -31 11.5t-12 30.5v342q0 19 12 30.5t31 11.5h341q20 0 31.5 -11.5t11.5 -30.5v-342
q0 -19 -11.5 -30.5t-31.5 -11.5zM683 172h256v256h-256v-256zM277.5 257q-115.5 0 -196.5 81t-81 196.5t81 196.5t196.5 81t196.5 -81t81 -196.5t-81 -196.5t-196.5 -81zM277 727q-80 0 -136 -56t-56 -136t56 -136t136 -56t136 56t56 136t-56 136t-136 56z" />
    <glyph glyph-name="uniE65D" unicode="&#xe65d;" 
d="M924 -232h-813q-44 0 -76 32t-32 76v813q0 45 32 77t76 32h813q45 0 77 -32t32 -77v-813q0 -44 -32 -76t-77 -32zM57 -124q0 -22 16 -38t38 -16h173l220 304l-177 181q-18 17 -39 15t-35 -22l-196 -286v-138zM978 -44q0 -10 -6 -17q-8 -8 -19 -8q-10 0 -17 7l-31 29
q-8 8 -8 18.5t7 18.5t17.5 8.5t18.5 -7.5l31 -29q7 -7 7 -17v730q0 23 -15.5 39t-38.5 16h-813q-22 0 -38 -16t-16 -39v-602l163 237q24 36 64.5 39.5t71.5 -27.5l173 -176l42 58q25 34 65 38t70 -26l158 -149q6 -6 6.5 -14.5t-5.5 -14.5t-14 -6.5t-14 5.5l-158 150
q-17 16 -39.5 14t-36.5 -21l-269 -372h590q23 0 38.5 16t15.5 38v80zM748 364q-62 0 -105.5 43.5t-43.5 105.5t43.5 105.5t105.5 43.5t105.5 -43.5t43.5 -105.5t-43.5 -105.5t-105.5 -43.5zM748 608q-39 0 -67 -27.5t-28 -67t28 -67.5t67 -28t67 28t28 67.5t-28 67t-67 27.5
zM-87 -178h3h-2h-1z" />
    <glyph glyph-name="uniE65E" unicode="&#xe65e;" 
d="M950 554l-151 -150q-25 -25 -60 -25t-60 25l-150 150q-25 25 -25 60t25 60l150 150q25 25 60 25t60 -25l151 -150q25 -25 25 -60t-25 -60zM924 664l-135 134q-20 21 -49.5 21t-50.5 -21l-134 -134q-21 -21 -21 -50t21 -50l134 -134q21 -21 50.5 -21t49.5 21l135 134
q20 21 20 50t-20 50zM378 -45h-213q-35 0 -60 25t-25 60v213q0 35 25 60t60 25h213q35 0 60 -25t25 -60v-213q0 -35 -25 -60t-60 -25zM378 423h-213q-35 0 -60 24.5t-25 60.5v212q0 36 25 60.5t60 24.5h213q35 0 60 -24.5t25 -60.5v-212q0 -36 -25 -60.5t-60 -24.5zM633 338
h212q36 0 61 -25t25 -60v-213q0 -35 -25 -60t-61 -25h-212q-35 0 -60 25t-25 60v213q0 35 25 60t60 25z" />
    <glyph glyph-name="uniE65F" unicode="&#xe65f;" 
d="M0 896h65v-1024h-65v1024zM0 -63h1024v-65h-1024v65zM137 796q0 -11 -9 -19t-22 -8h-67q-13 0 -22.5 8t-9.5 19t9.5 19t22.5 8h67q13 0 22 -8t9 -19zM137 619.5q0 -11.5 -9 -19t-22 -7.5h-67q-13 0 -22.5 7.5t-9.5 19t9.5 19t22.5 7.5h67q13 0 22 -7.5t9 -19zM137 441.5
q0 -11.5 -9 -19t-22 -7.5h-67q-13 0 -22.5 7.5t-9.5 19t9.5 19t22.5 7.5h67q13 0 22 -7.5t9 -19zM137 263.5q0 -11.5 -9 -19t-22 -7.5h-67q-13 0 -22.5 7.5t-9.5 19t9.5 19t22.5 7.5h67q13 0 22 -7.5t9 -19zM137 87q0 -11 -9 -19t-22 -8h-67q-13 0 -22.5 8t-9.5 19t9.5 19
t22.5 8h67q13 0 22 -8t9 -19zM218 480h169v-494h-169v494zM496 633h164v-647h-164v647zM768 790h167v-804h-167v804z" />
    <glyph glyph-name="uniE660" unicode="&#xe660;" 
d="M561 282l220 221q8 8 8 19t-7.5 18.5t-18.5 7.5t-19 -7l-221 -221l-221 221q-7 7 -18 7t-19 -7.5t-8 -18.5t8 -19l221 -221l-221 -220q-8 -8 -8 -19t8 -18.5t19 -7.5t18 7l221 221l221 -221q8 -7 19 -7t18.5 7.5t7.5 18.5t-8 19z" />
    <glyph glyph-name="uniE661" unicode="&#xe661;" 
d="M920 -42l-317 317l317 317l-90 90l-317 -317l-317 317l-90 -90l317 -317l-317 -317l90 -90l317 317l317 -317z" />
    <glyph glyph-name="uniE662" unicode="&#xe662;" 
d="M511 749q-91 0 -174 -35.5t-143.5 -95.5t-96 -143t-35.5 -174t35.5 -174t96 -143t143.5 -96t174 -36t174 36t143 96t95.5 143t35.5 174t-35.5 174t-95.5 143t-143 95.5t-174 35.5zM777 250h-538v102h538v-102z" />
    <glyph glyph-name="uniE663" unicode="&#xe663;" 
d="M511 749q-91 0 -174 -35.5t-143.5 -95.5t-96 -143t-35.5 -174t35.5 -174t96 -143t143.5 -96t174 -36t174 36t143 96t95.5 143t35.5 174t-35.5 174t-95.5 143t-143 95.5t-174 35.5zM780 250h-220v-219h-102v219h-219v102h219v219h102v-219h220v-102z" />
    <glyph glyph-name="uniE664" unicode="&#xe664;" 
d="M12 799v-129l382 -430v-353l236 -88v412l382 459v129h-1000zM953 700l-382 -460v-353l-118 29v353l-382 431v40h882v-40z" />
    <glyph glyph-name="uniE665" unicode="&#xe665;" 
d="M855 896h-686q-70 0 -119.5 -49.5t-49.5 -119.5v-686q0 -70 49.5 -119.5t119.5 -49.5h686q70 0 119.5 49.5t49.5 119.5v686q0 70 -49.5 119.5t-119.5 49.5zM214 853h596v-1v-2v-294q0 -22 -15.5 -37t-37.5 -15h-490q-22 0 -37.5 15t-15.5 37v294v2v1zM981 41
q0 -52 -37 -89t-89 -37h-686q-52 0 -89 37t-37 89v686q0 52 37 89t89 37h3v-1v-2v-294q0 -40 27.5 -67.5t67.5 -27.5h490q40 0 67.5 27.5t27.5 67.5v294v2v1h3q52 0 89 -37t37 -89v-686zM659 583q9 0 15.5 6.5t6.5 15.5v147q0 9 -6.5 15t-15.5 6t-15 -6t-6 -15v-147
q0 -9 6 -15.5t15 -6.5z" />
    <glyph glyph-name="uniE666" unicode="&#xe666;" 
d="M989 443q0 92 -38 175t-102 143.5t-152 96t-185 35.5t-185 -35.5t-152 -96t-102 -143.5t-38 -174.5t38 -175t102 -143.5t152 -95.5t185 -35.5q61 0 124 15l195 -134l-14 223q80 63 126 153t46 192zM582 166l-35 -34h-79l-25 25v70l15 25h93l31 -30v-56zM713 516
q-4 -3 -9.5 -8t-22.5 -20t-32.5 -29.5t-34.5 -33t-32.5 -33t-23 -27.5t-9.5 -20v-32h-91v102l144 131v67q-2 3 -6 8.5t-18 17t-29 17.5t-39.5 2.5t-50.5 -20.5q-5 -4 -13 -12t-24.5 -37t-22.5 -62q-2 -2 -6 -4t-16 -6t-22 -6t-22.5 0t-20.5 9.5t-12 24.5t-1 43q2 5 5.5 13.5
t17 31t30.5 41.5t45 38.5t61 27.5h116q5 -1 13 -4t29.5 -14t39 -24.5t34.5 -36.5t23 -50v-95z" />
    <glyph glyph-name="uniE667" unicode="&#xe667;" 
d="M869 187q35 -22 56 -61q22 -37 22 -83q0 -34 -14 -66q-12 -29 -37 -54q-22 -22 -53 -36q-32 -13 -66 -13q-46 0 -83 21q-37 22 -60 56q-5 6 -7 9q-5 6 -9 10q-17 24 -21 59q-5 32 -3 72q1 49 2 73q1 38 -6 64q-17 32 -27 47q-13 21 -33 51q-5 7 -6 8t-2.5 3t-2.5 3
q-37 -46 -40 -50q-4 -5 -18 -23t-22 -28q-4 -6 -8.5 -13t-8.5 -13q-10 -20 -10 -35q0 -14 4 -30q1 -5 9 -29q4 -15 5 -36q0 -21 -5 -47q-6 -24 -23 -64q-18 -48 -62 -80q-42 -30 -98 -30q-34 0 -67 14q-29 12 -53 36t-37 54q-13 32 -13 66q0 38 16 72q15 33 43 57
q27 28 57 47q20 13 59 35q12 7 55 32q25 15 45 39q1 1 8 11q2 1 4.5 5t3.5 5l1 1q5 9 12 16q8 10 30 41q6 7 16 21t16 21q-30 32 -48 47q-21 18 -39 43q-36 49 -64 104q-24 49 -40 102q-14 48 -14 87q0 40 14 57q8 6 21 8q14 2 23 -11q16 -20 45 -64q16 -24 54 -82l60 -91
q32 -48 63 -94q2 3 6.5 9t6.5 9q6 10 12 18q36 51 56 87q5 7 51 85q9 16 23 42t17 32q17 33 27 50q7 12 25 13q19 0 32 -11q6 -7 11 -38q5 -32 -3 -79q-9 -50 -35 -112q-27 -64 -82 -134l-34 -43q-12 -15 -36 -43q9 -13 24.5 -37t23.5 -35q18 -28 40 -60q28 -29 55 -44
q33 -19 52 -27q9 -5 25.5 -12.5t20.5 -8.5q22 -11 38 -25v0zM240 -34q35 0 59 24q24 25 24 59t-24 60q-24 24 -59 24q-34 0 -59 -24.5t-25 -59t25 -59.5q24 -24 59 -24v0zM776 -34q34 0 59 24q24 23 24 58q0 34 -24 59t-59 25t-59.5 -25t-24.5 -59q0 -17 6 -32q6 -14 18 -26
q11 -12 27 -18q14 -6 33 -6v0zM776 -34z" />
    <glyph glyph-name="uniE668" unicode="&#xe668;" 
d="M839 -146h-654q-49 0 -84 35t-35 84v654q0 49 35 84t84 35h654q49 0 84 -35t35 -84v-654q0 -49 -35 -84t-84 -35zM898 627q0 25 -17 42t-42 17h-654q-25 0 -42 -17t-17 -42v-654q0 -25 17 -42t42 -17h654q25 0 42 17t17 42v654zM809 92h-475q-13 0 -21.5 8.5t-8.5 21
t8.5 21t21.5 8.5h475q13 0 21.5 -8.5t8.5 -21t-8.5 -21t-21.5 -8.5zM809 270h-475q-13 0 -21.5 9t-8.5 21t8.5 21t21.5 9h475q13 0 21.5 -9t8.5 -21t-8.5 -21t-21.5 -9zM809 449h-475q-13 0 -21.5 8.5t-8.5 21t8.5 21t21.5 8.5h475q13 0 21.5 -8.5t8.5 -21t-8.5 -21
t-21.5 -8.5zM215 92q-13 0 -21.5 8.5t-8.5 21t8.5 21t21 8.5t21 -8.5t8.5 -21t-8.5 -21t-20.5 -8.5zM215 270q-13 0 -21.5 9t-8.5 21t8.5 21t21 9t21 -9t8.5 -21t-8.5 -21t-20.5 -9zM215 449q-13 0 -21.5 8.5t-8.5 21t8.5 21t21 8.5t21 -8.5t8.5 -21t-8.5 -21t-20.5 -8.5z
M215 449z" />
    <glyph glyph-name="uniE669" unicode="&#xe669;" 
d="M512 133l234 234h-150l-1 268h-166v-268h-151zM512 133z" />
    <glyph glyph-name="uniE66A" unicode="&#xe66a;" 
d="M512 635l-234 -234h150l1 -268h166v268h151zM512 635z" />
    <glyph glyph-name="uniE66B" unicode="&#xe66b;" 
d="M96 724v-684h832v684h-832zM884 84h-744v406h744v-406z" />
    <glyph glyph-name="uniE66C" unicode="&#xe66c;" horiz-adv-x="1173" 
d="M1096 238v583h-801v75h878v-658h-77zM1026 92h-76v584h-802v75h878v-659zM880 -128h-880v732h880v-732z" />
    <glyph glyph-name="uniE66D" unicode="&#xe66d;" 
d="M66 707h759v-758h-759v758zM200 826v-89h669v-669h89v758h-758z" />
    <glyph glyph-name="uniE66E" unicode="&#xe66e;" 
d="M960 812h-704q-27 0 -45.5 -18.5t-18.5 -45.5v-96h-128q-27 0 -45.5 -18.5t-18.5 -45.5v-480q0 -27 18.5 -45.5t45.5 -18.5h112q7 0 11.5 -4.5t4.5 -11.5v-176q0 -19 11 -35.5t29 -23.5q11 -5 24 -5q26 0 45 19l227 226q8 11 26 11h246q27 0 45.5 18.5t18.5 45.5v128h96
q27 0 45.5 18.5t18.5 45.5v448q0 27 -18.5 45.5t-45.5 18.5zM832 108q0 -13 -9.5 -22.5t-22.5 -9.5h-246q-13 0 -24 -4t-14 -8l-4 -4l-224 -224q-26 -22 -45 -13t-19 29v192q0 13 -9.5 22.5t-22.5 9.5h-128q-13 0 -22.5 9.5t-9.5 22.5v480q0 13 9.5 22.5t22.5 9.5h736
q13 0 22.5 -9.5t9.5 -22.5v-480zM992 300q0 -13 -9.5 -22.5t-22.5 -9.5h-96v320q0 27 -18.5 45.5t-45.5 18.5h-576v96q0 13 9.5 22.5t22.5 9.5h704q13 0 22.5 -9.5t9.5 -22.5v-448zM208 428h208q7 0 11.5 4.5t4.5 11.5t-4.5 11.5t-11.5 4.5h-208q-7 0 -11.5 -4.5t-4.5 -11.5
t4.5 -11.5t11.5 -4.5zM656 364h-448q-7 0 -11.5 -4.5t-4.5 -11.5t4.5 -11.5t11.5 -4.5h448q7 0 11.5 4.5t4.5 11.5t-4.5 11.5t-11.5 4.5zM544 268h-336q-7 0 -11.5 -4.5t-4.5 -11.5t4.5 -11.5t11.5 -4.5h336q7 0 11.5 4.5t4.5 11.5t-4.5 11.5t-11.5 4.5z" />
    <glyph glyph-name="uniE66F" unicode="&#xe66f;" 
d="M400 256h128v-23h-128v23zM400 361h284v-23h-284v23zM528 45v24h-282v11v634v1h67l7 29h-79q-5 0 -8.5 -1t-5 -1.5t-2.5 -4t-1 -5.5v-7v-9v-638v-8v-8q0 -2 0.5 -5.5t1.5 -5t3 -3.5t4.5 -2.5t7.5 -0.5h287v0zM762 704v-383l21 1v394q0 17 -3.5 22.5t-17.5 5.5h-85l7 -29
h77q1 0 1 -1v-10zM318 278h61v-45h-61v45zM318 383h61v-45h-61v45zM318 488h61v-45h-61v45zM318 593h61v-45h-61v45zM400 467h284v-24h-284v24zM400 572h284v-24h-284v24zM350 752h109q2 16 14 27t28 11t28 -11t15 -27h104q12 0 13 -9l11 -29q1 -5 -3.5 -9.5t-9.5 -4.5h-321
q-5 0 -9.5 4.5t-3.5 9.5l11 29q1 9 14 9v0zM501 765q8 0 13.5 -6t5.5 -14q0 -5 -2 -6.5t-8 0t-8.5 1.5t-9 -1.5t-8.5 0t-2 6.5q0 8 5.5 14t13.5 6zM694 -17q-67 0 -114.5 47.5t-47.5 114.5t47.5 114t114.5 47t114 -47t47 -114t-47 -114.5t-114 -47.5zM694 283
q-57 0 -97.5 -40.5t-40.5 -97.5t40.5 -97.5t97.5 -40.5t97.5 40.5t40.5 97.5t-40.5 97.5t-97.5 40.5zM771 188q-8 8 -16 0l-84 -85l-37 38q-8 8 -16.5 0t-0.5 -16l46 -47v0q0 -1 2 -2h1v-1h5h4q0 1 1 1q2 1 3 2v0l92 93q8 9 0 17z" />
    <glyph glyph-name="uniE670" unicode="&#xe670;" horiz-adv-x="1025" 
d="M547 -102v465h-34v-465l-123 123l-24 -25l164 -164l164 164l-24 25zM838 500v4v4q0 110 -77.5 187.5t-186.5 77.5q-78 0 -142 -41.5t-97 -109.5q-29 14 -61 14q-50 0 -88 -32t-47 -81q-61 -21 -99.5 -74t-38.5 -120q0 -85 60 -144.5t145 -60.5h205v35h-205q-71 0 -121 50
t-50 120q0 55 32 99.5t84 62.5l19 6l3 20q6 37 34.5 61t66.5 24q24 0 46 -11l31 -15l15 31q28 60 85 95.5t123 35.5q95 0 162.5 -67.5t67.5 -162.5v-2v-5l-1 -35h35q63 0 108 -45.5t45 -108.5t-45 -108t-108 -45h-8h-181v-35h189q78 1 132.5 56t54.5 132.5t-55 132.5
t-132 55z" />
    <glyph glyph-name="uniE671" unicode="&#xe671;" 
d="M512 222q-109 0 -186.5 77.5t-77.5 187.5t77.5 188t186.5 78t186.5 -78t77.5 -188t-77.5 -187.5t-186.5 -77.5zM512 722q-97 0 -165.5 -69t-68.5 -166t68.5 -166t165.5 -69t165.5 69t68.5 166t-68.5 166t-165.5 69zM943 -153h-862q-7 0 -11.5 4.5t-4.5 11.5v6
q0 100 60 185.5t163 135.5t224 50t224 -50t163 -135.5t60 -185.5v-5q0 -6 -5 -11.5t-11 -5.5zM96 -122h832q-4 91 -60.5 167t-151 120t-204.5 44q-111 0 -206 -44t-151 -120.5t-59 -166.5z" />
    <glyph glyph-name="uniE672" unicode="&#xe672;" 
d="M768 192v384h-64v-384h-160l192 -192l192 192h-160zM320 640v-192h-192v192h192zM384 704h-320v-320h320v320zM64 256h96v-64h-96v64zM192 256h96v-64h-96v64zM320 256h64v-96h-64v96zM64 32h64v-96h-64v96zM160 0h96v-64h-96v64zM288 0h96v-64h-96v64zM64 160h64v-96
h-64v96zM320 128h64v-96h-64v96z" />
    <glyph glyph-name="uniE673" unicode="&#xe673;" 
d="M704 384v-384h64v384h160l-192 192l-192 -192h160zM64 704h96v-64h-96v64zM192 704h96v-64h-96v64zM320 704h64v-96h-64v96zM64 480h64v-96h-64v96zM160 448h96v-64h-96v64zM288 448h96v-64h-96v64zM64 608h64v-96h-64v96zM320 576h64v-96h-64v96zM320 192v-192h-192v192
h192zM384 256h-320v-320h320v320z" />
    <glyph glyph-name="uniE674" unicode="&#xe674;" 
d="M631 -61q-14 0 -25 10q-8 7 -12 15l-1 1l-1 1q-1 1 -2 4q-9 25 -30 43q-21 17 -47.5 17t-47.5 -18q-22 -18 -31 -41q-7 -17 -21 -25q-12 -6 -29 -6q-14 0 -32 5q-17 5 -34 12q-18 7 -32 18q-15 10 -23 22q-7 10 -8 23q0 12 9 31q8 18 6 41q-2 22 -20 42q-9 10 -23 13
t-26 3h-1h-4q-18 -1 -36 -7q-9 -2 -16 -2q-10 0 -21 5h-1q-13 5 -25 22q-9 14 -17 32q-7 17 -11 36q-4 20 -2 34q4 29 28 37h1v1q23 9 43 32q18 21 18 46q0 27 -18 47q-20 21 -44 31h-1q-12 4 -21 20q-7 14 -7 29q0 13 4 30q4 15 11 31q6 15 15 28q10 14 22 21v1q9 5 19 5h5
q8 -1 17 -4q19 -8 37 -8q7 0 15 2q25 3 45 22q8 8 12 21q5 15 6 28q1 14 0 26q-1 8 -2 15v1v1q-2 6 -3 13q-3 12 2 22v1q7 16 25 28q16 11 34 18q18 6 35 10t28 4q19 0 30 -13q9 -10 13 -22v0q8 -20 29 -37q19 -15 45.5 -15t48 15t29.5 38q6 12 15 21q12 13 27 13t32 -5
q17 -4 33 -11t30 -18q15 -12 24 -26q7 -13 4 -27q-2 -11 -5 -16v-1q-10 -21 -6 -47q4 -24 23 -43q18 -18 45 -20h9q23 0 44 9l1 1h1q6 4 19 4h5q16 -1 27 -12v-1q16 -14 28 -44q11 -28 15 -56q3 -22 -8 -36q-10 -12 -21 -16q-25 -9 -43 -31q-17 -21 -17 -48t14 -47
q15 -20 38 -28l2 -1h1q7 -4 12 -9q14 -11 19 -28q3 -16 0 -34q-3 -17 -10 -35t-18 -32q-11 -16 -25 -23q-15 -7 -27 -7q-11 0 -23 4h-1v1q-6 1 -20 4q-7 1 -15 1q-4 0 -9 -1q-13 -1 -26 -5q-10 -3 -17 -11q-20 -20 -23 -45t7 -48l1 -1q12 -24 -4 -50q-8 -11 -23 -20
q-12 -8 -28 -15q-15 -7 -32.5 -11.5t-31.5 -4.5zM513 60q38 0 66 -24q25 -22 37 -50l1 -2v-1q1 -1 2 -3v-1q2 -3 5 -6l4 -4l5 1q10 0 23 3q14 3 27 9q14 6 24 13t14 12l1 1q6 9 1 20q-15 31 -10 65q4 34 30 61q12 14 30 20q16 5 32 6q7 1 13 1q10 0 19 -2q15 -2 25 -5
q9 -3 15 -3h13v4q7 4 14 13q8 12 14 26.5t9 28.5q2 13 1 22l-1 5l-3 2l-5 5v0q-3 3 -7 5h-1l-1 1q-30 12 -50 38q-20 27 -20 64t24 67q23 28 56 40l9 20q-3 25 -13 49q-9 23 -21 34l-2 2l-11 3l-4 -2q-29 -13 -59 -13h-11q-38 3 -64 29t-31 60t8 65q2 2 3 7l1 5l-3 5
q-6 8 -15 16q-11 8 -24 14q-14 6 -28 9q-11 3 -21 4h-6l-4 -4q-6 -6 -8 -11v-1h-1q-10 -29 -39 -50t-65 -21q-38 0 -65 22q-26 21 -38 50q-3 7 -7 12l-19 2h-1q-6 -1 -10 -2q-15 -3 -30 -9t-28 -15q-9 -6 -13 -13l-3 -4l1 -5q1 -5 3 -9v-3q2 -7 3 -19q1 -14 0 -31v-1
q-2 -16 -7 -34q-7 -20 -20 -34q-27 -25 -62 -30q-9 -1 -18 -1q-25 0 -48 9h-1q-3 1 -7 2l-5 1l-4 -3q-6 -4 -11 -12q-8 -10 -13 -23q-6 -13 -9 -26t-3 -23q0 -8 4 -15l4 -6q33 -13 57 -39q26 -28 26 -67q0 -37 -26 -66q-24 -28 -54 -40q-9 -3 -10 -15q-2 -9 1 -23
q4 -16 10 -30q6 -15 14 -27q2 -3 4 -5v-3l8 -4q6 -2 11 -2h1l2 1q26 7 46 8v0h7q16 0 32 -4q23 -5 39 -22q25 -27 28 -59t-9 -56q-6 -12 -6 -18v-4l3 -3q5 -7 15 -15q12 -8 27 -14q15 -7 30 -11q13 -4 25 -4q9 0 14 3l4 2l1 4q14 34 42 57q29 24 67 24zM511.5 169
q-44.5 0 -84 17t-69 47t-45.5 69q-17 39 -17 83.5t17 83.5t46 68.5t68.5 46.5t84.5 17t84 -17q40 -17 69 -46q30 -30 46.5 -69t16.5 -83.5t-16 -84.5q-17 -38 -46.5 -68t-69.5 -47t-84.5 -17zM511.5 571q-38.5 0 -72.5 -14.5t-59 -40.5q-25 -25 -40 -59q-14 -33 -14 -72
q0 -38 14.5 -71.5t39.5 -59.5t59 -40q34 -15 73 -15q38 0 72 15q35 14 60 40t40 59q15 34 15 72.5t-15 71.5q-14 34 -40 59q-25 26 -60 40q-34 15 -72.5 15z" />
    <glyph glyph-name="uniE675" unicode="&#xe675;" 
d="M512 299q-35 0 -60 -25t-25 -61q0 -34 21 -55v-9q0 -25 19 -44.5t45 -19.5t45 19.5t19 44.5v9q21 21 21 55q0 38 -24.5 62t-60.5 24zM533 183v-25q0 -10 -5.5 -15.5t-15.5 -5.5t-15.5 5.5t-5.5 15.5v25q-22 15 -22 35q0 16 12.5 29t30.5 13q17 0 30 -12t13 -30
q0 -27 -22 -35zM764 469v124q0 103 -73.5 177.5t-178.5 74.5q-103 0 -177.5 -73.5t-74.5 -178.5v-124q-35 0 -60 -25t-25 -60v-375q0 -36 25 -61t60 -25h499q36 0 61 25t25 61v375q0 35 -24.5 60t-56.5 25zM303 593q0 86 61.5 147.5t147.5 61.5t147.5 -61.5t61.5 -147.5
v-124h-418v124zM802 9q0 -17 -12 -30t-31 -13h-499q-16 0 -29 12t-13 31v375q0 17 12 30t30 13h457h42q17 0 30 -12.5t13 -30.5v-375z" />
    <glyph glyph-name="uniE676" unicode="&#xe676;" 
d="M764 469v124q0 103 -73.5 177.5t-178.5 74.5q-103 0 -177.5 -73.5t-74.5 -178.5q0 -10 6 -15.5t15.5 -5.5t15.5 5.5t6 15.5q0 86 61.5 147.5t147.5 61.5t147.5 -61.5t61.5 -147.5v-124h-461q-35 0 -60 -25t-25 -60v-375q0 -36 25 -61t60 -25h499q36 0 61 25t25 61v375
q0 35 -24.5 60t-56.5 25zM802 9q0 -17 -12 -30t-31 -13h-499q-16 0 -29 12t-13 31v375q0 17 12 30t30 13h499q17 0 30 -12.5t13 -30.5v-375zM512 299q-35 0 -60 -25t-25 -61q0 -34 21 -55v-9q0 -25 19 -44.5t45 -19.5t45 19.5t19 44.5v9q21 21 21 55q0 38 -24.5 62t-60.5 24
zM533 183v-25q0 -10 -5.5 -15.5t-15.5 -5.5t-15.5 5.5t-5.5 15.5v25q-22 15 -22 35q0 16 12.5 29t30.5 13q17 0 30 -12t13 -30q0 -27 -22 -35z" />
    <glyph glyph-name="uniE677" unicode="&#xe677;" 
d="M734 406h-209v208q0 22 -21.5 22t-21.5 -22v-208h-209q-6 0 -11.5 -6.5t-5.5 -15.5q0 -22 22 -22h208v-208q0 -22 21.5 -22t21.5 22v208h209q10 0 16 6t6 16q-3 9 -11 15.5t-15 6.5zM504 841q-93 0 -177.5 -36.5t-145.5 -97.5t-97.5 -145.5t-36.5 -177.5t36.5 -177.5
t97.5 -145.5t145.5 -97.5t177.5 -36.5t177.5 36.5t145.5 97.5t97.5 145.5t36.5 177.5t-36.5 177.5t-97.5 145.5t-145.5 97.5t-177.5 36.5zM503.5 -34q-113.5 0 -210 56t-152.5 152.5t-56 209.5t56 209.5t152.5 152.5t210 56t210 -56t152.5 -152.5t56 -209.5t-56 -209.5
t-152.5 -152.5t-210 -56z" />
    <glyph glyph-name="uniE678" unicode="&#xe678;" 
d="M512 841q-94 0 -179.5 -36.5t-147 -97.5t-98 -145.5t-36.5 -177.5t36.5 -177.5t98 -145.5t147 -97.5t179.5 -36.5t179 36.5t145.5 97.5t96.5 145.5t36 177.5t-36.5 177.5t-97.5 145.5t-145.5 97.5t-177.5 36.5zM512 -34q-113 0 -209.5 56t-152.5 152.5t-56 209.5
t56 209.5t152.5 152.5t209.5 56t209.5 -56t152.5 -152.5t56 -209.5q-2 -114 -58 -210t-151.5 -152t-208.5 -56zM738 406h-456q-22 0 -22 -22t22 -22h456q10 0 16 6t6 16t-6 16t-16 6z" />
    <glyph glyph-name="uniE679" unicode="&#xe679;" 
d="M504 841q-94 0 -179.5 -36.5t-147 -97.5t-98 -145.5t-36.5 -177.5t36 -177.5t97.5 -145.5t146 -97.5t177.5 -36.5t178 36.5t147 97.5t99 145.5t37 177.5t-36.5 177.5t-97.5 145.5t-145.5 97.5t-177.5 36.5zM504 -34q-150 0 -274 103q40 36 67.5 52.5t78.5 37.5
q54 22 72.5 64t-4.5 89q-2 7 -8.5 17.5t-8.5 16.5q-15 27 -22.5 44.5t-16 56.5t-8.5 87q0 35 7 60t16 37t25.5 18.5t26 7t27.5 0.5q42 0 60 14q8 4 21 4q33 0 57 -36t24 -110q0 -50 -6.5 -85t-12.5 -48t-24 -46q-4 -6 -10.5 -18.5t-10.5 -19.5q-20 -47 -9 -82q21 -46 89 -80
q52 -26 107 -81q-48 -47 -118 -75t-145 -28zM806 98q-65 65 -120 90q-29 13 -47 28t-22 28q-7 24 9 47q4 6 10.5 19t10.5 20q18 33 25 48t14.5 55.5t7.5 96.5q0 51 -11 88.5t-25.5 55.5t-34.5 29t-31 13t-22 2q-13 0 -38 -8q-26 -9 -47 -9q-19 0 -33.5 -1.5t-37 -10.5
t-37.5 -25t-26 -49t-11 -79q0 -41 4 -73.5t14.5 -61t15 -38.5t17.5 -36q3 -8 10 -18t8 -12q15 -36 3.5 -59t-51.5 -39q-41 -20 -57 -28t-43 -26t-57 -45q-57 53 -88 127t-31 157q0 113 56 209.5t152 152.5t209.5 56t210 -56t153 -152.5t56.5 -209.5q-6 -163 -116 -286z" />
    <glyph glyph-name="uniE67A" unicode="&#xe67a;" 
d="M213 725h-42v-341h42v341zM341 725h-85v-341h85v341zM427 725h-43v-341h43v341zM85 85q0 -17 12.5 -29.5t30.5 -12.5v128h-43v-86zM128 725q-18 0 -30.5 -12.5t-12.5 -29.5v-299h43v341zM725 725h-42v-341h42v341zM555 725h-86v-341h86v341zM939 683q0 17 -12.5 29.5
t-30.5 12.5h-43v-341h86v299zM640 725h-43v-341h43v341zM811 725h-43v-341h43v341zM768 43h43v128h-43v-128zM853 43h43q18 0 30.5 12.5t12.5 29.5v86h-86v-128zM939 341h-854q-17 0 -29.5 -12.5t-12.5 -29.5v-43q0 -18 12.5 -30.5t29.5 -12.5h854q17 0 29.5 12.5t12.5 30.5
v43q0 17 -12.5 29.5t-29.5 12.5zM939 256h-854v43h854v-43zM683 43h42v128h-42v-128zM597 43h43v128h-43v-128zM171 43h42v128h-42v-128zM256 43h85v128h-85v-128zM384 43h43v128h-43v-128zM469 43h86v128h-86v-128z" />
    <glyph glyph-name="uniE67B" unicode="&#xe67b;" 
d="M384 469q-10 0 -15.5 -5.5t-5.5 -15.5q0 -9 6 -15l128 -128q6 -6 15 -6t15 6l128 128q6 6 6 15q0 10 -5.5 15.5t-15.5 5.5q-9 0 -15 -6l-92 -92v418q0 10 -5.5 16t-15.5 6t-15.5 -6t-5.5 -16v-418l-92 92q-6 6 -15 6zM979 286l-213 427q-7 12 -19 12h-150q-9 0 -15 -5.5
t-6 -15.5t6 -15.5t15 -5.5h137l192 -384h-222h-23h-20q-9 0 -15 -6t-6 -16q0 -52 -37.5 -90t-90.5 -38t-90.5 38t-37.5 90q0 10 -6 16t-15 6h-20h-23h-222l192 384h137q9 0 15 5.5t6 15.5t-6 15.5t-15 5.5h-150q-12 0 -19 -12l-213 -427q-2 -2 -2 -9v-298q0 -10 5.5 -16
t15.5 -6h896q10 0 15.5 6t5.5 16v298q0 7 -2 9zM939 0h-854v256h258q9 -63 57 -106t112 -43q65 0 112.5 43t56.5 106h258v-256z" />
    <glyph glyph-name="uniE67C" unicode="&#xe67c;" 
d="M979 286l-213 427q-7 12 -19 12h-22q-9 0 -15 -5.5t-6 -15.5t6 -15.5t15 -5.5h9l192 -384h-222h-23h-20q-9 0 -15 -6t-6 -16q0 -52 -37.5 -90t-90.5 -38t-90.5 38t-37.5 90q0 10 -6 16t-15 6h-20h-23h-222l192 384h9q9 0 15 5.5t6 15.5t-6 15.5t-15 5.5h-22
q-12 0 -19 -12l-213 -427q-2 -2 -2 -9v-298q0 -10 5.5 -16t15.5 -6h896q10 0 15.5 6t5.5 16v298q0 7 -2 9zM939 0h-854v256h258q9 -63 57 -106t112 -43q65 0 112.5 43t56.5 106h258v-256zM384 640q9 0 15 6l92 92v-418q0 -10 5.5 -15.5t15.5 -5.5t15.5 5.5t5.5 15.5v418
l92 -92q6 -6 15 -6q10 0 15.5 6t5.5 15t-6 15l-128 128q-6 7 -15 7t-15 -7l-128 -128q-6 -6 -6 -15t5.5 -15t15.5 -6z" />
    <glyph glyph-name="uniE67D" unicode="&#xe67d;" 
d="M529 285l-39 -39l39 -39q8 -8 8 -19.5t-8 -19.5l-233 -233q-8 -8 -19.5 -8t-19.5 8l-194 194q-8 8 -8 19.5t8 19.5l233 233q8 8 19.5 8t19.5 -8l39 -39l39 39l-39 39q-24 24 -58.5 24t-58.5 -24l-233 -233q-24 -24 -24 -58t24 -58l194 -195q25 -24 59 -24t58 24l233 233
q24 25 24 59t-24 58zM801 868q-24 24 -58 24t-58 -24l-233 -233q-25 -25 -25 -59t25 -58l38 -39l39 39l-39 39q-8 8 -8 19.5t8 19.5l234 233q8 8 19 8t20 -8l194 -194q8 -8 8 -19.5t-8 -19.5l-233 -234q-8 -8 -19.5 -8t-19.5 8l-39 39l-39 -39l39 -38q24 -24 58 -24t59 24
l233 233q24 24 24 58t-24 58zM354.5 226.5q8.5 -8.5 19.5 -8.5t19 8l272 273q8 8 8 19t-8 19t-19 8t-19 -8l-273 -272q-8 -8 -8 -19t8.5 -19.5z" />
    <glyph glyph-name="uniE67E" unicode="&#xe67e;" horiz-adv-x="1026" 
d="M670 505q9 6 11 16.5t-3.5 19.5t-16.5 11.5t-20 -3.5l-158 -102l26 -46zM1013 602l-142 220q-18 27 -50 34t-59 -10l-264 -171q-28 -18 -34.5 -49.5t10.5 -59.5l29 -44l44 29l-29 44q-6 9 -3.5 19.5t11.5 16.5l264 170q10 6 20.5 4t16.5 -11l142 -221q6 -9 3.5 -19.5
t-11.5 -16.5l-264 -171q-9 -5 -20 -3t-17 11l-28 44l-44 -28l28 -44q18 -28 50 -34.5t59 10.5l265 171q27 18 34 49.5t-11 59.5zM325 267q-6 -8 -5 -19t9.5 -18t19 -5.5t17.5 9.5l119 147l-39 34zM530 270l-41 33l-33 -41l41 -33q9 -7 10 -17.5t-6 -19.5l-198 -244
q-7 -9 -18 -10t-19 6l-204 165q-8 7 -9 18t5 19l199 244q6 9 17 10t19 -6l41 -33l33 41l-40 33q-26 21 -58.5 17.5t-52.5 -28.5l-198 -245q-21 -25 -17.5 -57.5t28.5 -53.5l204 -165q25 -20 57.5 -17t52.5 29l199 244q20 25 17 57.5t-29 53.5zM403 846l37 -12l-57 -127
l-36 12zM60 546l162 59l14 -38l-162 -59zM195 798l31 27l46 -143l-31 -27z" />
    <glyph glyph-name="uniE67F" unicode="&#xe67f;" 
d="M794 495q6 28 6 57q0 116 -82 198t-198 82q-114 0 -196 -80t-84 -194q-76 -12 -126 -70.5t-50 -135.5q0 -86 61 -147t147 -61h89q6 0 11 4.5t5 11.5t-5 11.5t-11 4.5h-89q-73 0 -124.5 51.5t-51.5 124.5q0 66 43 115.5t108 58.5q2 1 4 1q3 -1 6 -1q6 0 10.5 5t4.5 12v9
q0 103 72.5 175.5t175.5 72.5t175.5 -72.5t72.5 -175.5q0 -34 -9 -66q-3 -10 5 -16q5 -6 12 -6q63 0 107.5 -44.5t44.5 -107.5q0 -44 -27.5 -82.5t-61.5 -38.5h-35h-1h-31h-47h-102h-47q-7 0 -11.5 -4.5t-4.5 -11t4.5 -11.5t11.5 -5h47h102h47h31h1h35q49 0 85 48t36 105
q0 71 -48 123.5t-118 59.5zM496 448v-496q0 -7 4.5 -11.5t11.5 -4.5t11.5 4.5t4.5 11.5v496q0 7 -4.5 11.5t-11.5 4.5t-11.5 -4.5t-4.5 -11.5zM378 371l144 115h-20l144 -115q13 -9 23 3.5t-3 22.5l-144 114q-10 8 -20 0l-144 -114q-12 -10 -2 -22.5t22 -3.5z" />
    <glyph glyph-name="uniE680" unicode="&#xe680;" 
d="M167 684h66v-768h-66v768zM173 -18h252v-66h-252v66zM167 686h258v-66h-258v66zM361 362h449v-126h-449v126zM937 296l-254 -248v496z" />
    <glyph glyph-name="uniE681" unicode="&#xe681;" 
d="M1023 821v75h-731h-72v-77v-217h72v217h659v-874h-658v146h-74v-146v-73h74h658h73v73v876h-1zM440 169l52 -51l224 224l-51 51l-175 174l-51 -52l133 -132h-572v-73h581z" />
    <glyph glyph-name="uniE682" unicode="&#xe682;" 
d="M864 832h-704q-40 0 -68 -28t-28 -68v-128v-32q0 -13 9.5 -22.5t22.5 -9.5t22.5 9.5t9.5 22.5v32v96q0 27 18.5 45.5t45.5 18.5h640q27 0 45.5 -18.5t18.5 -45.5v-96v-32q0 -13 9.5 -22.5t22.5 -9.5t22.5 9.5t9.5 22.5v32v128q0 40 -28 68t-68 28zM928 224
q-13 0 -22.5 -9.5t-9.5 -22.5v-32v-96q0 -27 -18.5 -45.5t-45.5 -18.5h-640q-27 0 -45.5 18.5t-18.5 45.5v96v32q0 13 -9.5 22.5t-22.5 9.5t-22.5 -9.5t-9.5 -22.5v-32v-128q0 -40 28 -68t68 -28h704q40 0 68 28t28 68v128v32q0 13 -9.5 22.5t-22.5 9.5zM928 416h-832
q-13 0 -22.5 -9.5t-9.5 -22.5t9.5 -22.5t22.5 -9.5h832q13 0 22.5 9.5t9.5 22.5t-9.5 22.5t-22.5 9.5z" />
    <glyph glyph-name="uniE683" unicode="&#xe683;" 
d="M969 387l-212 212v-159h-77h-9h-302v-106h302h9h77v-158zM578 114q0 -9 -7 -16.5t-17 -7.5h-427q-10 0 -17 7.5t-7 16.5v540q0 9 7 16.5t17 7.5h427q10 0 17 -7.5t7 -16.5v-100h48v100q0 29 -21 50t-51 21h-427q-30 0 -51 -21t-21 -50v-540q0 -29 21 -50t51 -21h427
q30 0 51 21t21 50v100h-48v-100z" />
    <glyph glyph-name="uniE684" unicode="&#xe684;" 
d="M484 670h355v-29h-355v29zM484 599h355v-15h-355v15zM284 129h299v-28h-299v28zM284 58h299v-14h-299v14zM484 542h355v-14h-355v14zM484 485h355v-14h-355v14zM484 428h355v-14h-355v14zM484 371h355v-14h-355v14zM284 314h555v-14h-555v14zM284 257h555v-14h-555v14z
M284 200h555v-14h-555v14zM284 1h299v-14h-299v14zM284 -56h299v-14h-299v14zM199 798v-86h-99v-298h99v-612h398h71h29h14h2l211 212v2v782h-725zM184 465q-22 -32 -44 -19q-19 10 -11 32q3 9 12 17q15 15 52 29q17 34 31 67q-11 23 -14 48q-5 35 18 43q19 7 30 -12
q7 -13 4 -32q-3 -16 -15 -46q14 -24 37 -44q35 5 54 3q20 -3 27 -16t-1 -25t-26 -12q-24 0 -60 27q-36 -7 -70 -18q-14 -28 -24 -42zM711 -139v155h155zM882 58h-214v-213h-426v569h156v298h-156v43h640v-697z" />
    <glyph glyph-name="uniE685" unicode="&#xe685;" horiz-adv-x="1051" 
d="M989 247l-210 250v-114h-628v-290h628v-114zM289 273h-70v-23h66v-24h-66v-24h70v-25h-94v122h94v-26zM391 176l-30 46l-28 -45h-30l38 61l-39 61h30l29 -46l30 46h30l-40 -62l40 -61h-30zM539 200q0 -5 -2.5 -9t-6 -6.5t-9.5 -4.5t-11 -2h-46q-4 0 -9 1.5t-9 3t-6.5 4
t-5.5 9t-3 14.5v59q0 4 1 8t3 8t6 7.5t10 5.5t10 2h49q5 0 9 -1.5t8 -3.5t7 -6.5t4 -14.5l1 -17h-25q-1 4 -1.5 7t-2.5 6t-8 3h-30q-5 0 -8.5 -1t-4.5 -2t-2.5 -5t-1.5 -10v-29q0 -9 1.5 -12.5t3 -5t4.5 -2t8 -0.5h28q10 0 12 3t2 5v10h26l-1 -24v0zM659 273h-70v-23h66v-24
h-66v-24h70v-25h-94v122h94v-26zM776 177h-85v121h24v-93h61v-28zM776 177zM702 -43q-15 -5 -31 -5h-450q-44 0 -74.5 29.5t-30.5 72.5v472q0 43 31 74t74 31h450h5h1q2 0 4 -1h2h3q1 0 2 -1h2q2 0 4 -1h1q2 0 3 -1h1l6 -2q35 -12 55 -44q15 -23 16 -51h49v3q0 25 -8 48h1
q-15 43 -52 70.5t-83 28.5h-3h-1h-465q-61 0 -104 -43t-43 -104v-483q0 -61 43 -104t104 -43h464q69 0 113 54h-89z" />
    <glyph glyph-name="uniE686" unicode="&#xe686;" 
d="M462 229l-69 -147h85l29 88l29 -88h85l-68 147l63 143h-85l-24 -84l-24 84h-85zM588 833v-245h244v-651h-650v896h406zM226 470v-485h562v485h-562zM621 833l216 -217h-216v217z" />
    <glyph glyph-name="uniE687" unicode="&#xe687;" 
d="M589 831v-244h244v-649h-649v893h405zM228 465v-484h561v484h-561zM701 363l-70 -280h-90l-32 162l-33 -162h-90l-69 280h88l32 -173l34 173h76l33 -173l32 173h89zM617 831l216 -215h-216v215z" />
    <glyph glyph-name="uniE688" unicode="&#xe688;" horiz-adv-x="1025" 
d="M470 342q6 0 10 4l363 317l-22 24l-362 -317q-12 -11 -1 -23q5 -5 12 -5zM326 -212q71 0 131.5 26.5t99.5 69.5t61 97t22 111q0 70 -26 121l145 73q9 4 9 14v128h96h2h2q16 1 21.5 7.5t6.5 24.5v128h96q4 0 9 -1q11 -1 17.5 4.5t5.5 19.5v9v145q0 19 -14 33t-33 14h-124
q-18 0 -31 -12l-422 -370q-48 10 -74 10q-88 0 -163.5 -43.5t-119 -119t-43.5 -163.5t43.5 -163.5t119 -119t163.5 -43.5zM326 408q25 0 75 -10q8 -2 14 3l428 375q4 4 10 4h124q6 0 10.5 -4.5t4.5 -10.5v-145h-112q-7 0 -11.5 -4.5t-4.5 -11.5v-144h-112q-7 0 -11.5 -4.5
t-4.5 -11.5v-134l-151 -76q-7 -3 -8.5 -10t2.5 -13q11 -16 20 -49.5t9 -69.5q0 -51 -19.5 -99t-55 -87t-89.5 -62.5t-118 -23.5q-122 0 -208 86t-86 208t86 208t208 86zM272 -52q46 0 79 33t33 79t-33 79t-79 33t-79 -33t-33 -79t33 -79t79 -33zM272 140q33 0 56.5 -23.5
t23.5 -56.5t-23.5 -56.5t-56.5 -23.5t-56.5 23.5t-23.5 56.5t23.5 56.5t56.5 23.5z" />
    <glyph glyph-name="uniE689" unicode="&#xe689;" 
d="M661 469h-298q-10 0 -16 -5.5t-6 -15.5t6 -15.5t16 -5.5h298q10 0 16 5.5t6 15.5t-6 15.5t-16 5.5zM510 130q-5 5 -12 2t-7 -10v-79q-135 9 -227.5 107.5t-92.5 233.5q0 97 50.5 178.5t136.5 126.5q8 3 11 11.5t-2 16.5q-3 8 -11.5 10.5t-16.5 -2.5q-97 -48 -154 -140
t-57 -201q0 -101 48 -187t131.5 -138t183.5 -57v-81q0 -7 6 -10t13 2l94 93q6 7 6 15.5t-6 14.5zM661 341h-298q-10 0 -16 -5.5t-6 -15.5t6 -15.5t16 -5.5h298q10 0 16 5.5t6 15.5t-6 15.5t-16 5.5zM533 766v83q0 7 -6 10t-13 -1l-94 -94q-6 -7 -6 -15.5t6 -14.5l94 -94
q5 -5 12 -2t7 11v74q135 -8 227.5 -106.5t92.5 -232.5q0 -97 -50.5 -178.5t-136.5 -126.5q-8 -3 -11 -11.5t2 -16.5q9 -13 19 -13q7 0 9 3q97 49 154 141.5t57 201.5q0 101 -48 187t-131.5 138t-183.5 57z" />
    <glyph glyph-name="uniE68A" unicode="&#xe68a;" 
d="M522.5 282q6.5 0 11 4.5t4.5 11.5v47q0 6 -4.5 10.5t-11 4.5t-11.5 -4.5t-5 -10.5v-47q0 -7 5 -11.5t11.5 -4.5zM521 627q-49 0 -86.5 -34.5t-37.5 -89.5v-49h-32q-19 0 -33 -13.5t-14 -33.5v-172q0 -19 14 -33t33 -14h314q19 0 33 14t14 33v172q0 20 -14 33.5t-33 13.5
h-32v48q0 53 -39 89t-87 36zM428 503q0 41 28.5 66.5t64.5 25.5t65.5 -27t29.5 -66v-48h-188v49zM679 423q6 0 11 -4.5t5 -11.5v-172q0 -6 -5 -11t-11 -5h-314q-6 0 -10.5 5t-4.5 11v172q0 7 4.5 11.5t10.5 4.5h314zM931 399q-6 0 -10.5 -4.5t-4.5 -10.5q0 -107 -53 -197.5
t-143.5 -143.5t-197.5 -53t-197.5 53t-143 143.5t-52.5 197.5t52.5 197.5t143 143.5t197.5 53q91 0 172.5 -40t137.5 -111l-86 15l-4 -21l128 -23l2 15q1 3 0 7l11 108l-22 2l-8 -81q-55 68 -132 110q-45 24 -95 36q-51 13 -104 13q-86 0 -165 -33q-76 -32 -134.5 -91
t-91.5 -135q-33 -79 -33 -165t33 -165q33 -76 91.5 -135t134.5 -91q79 -33 165 -33t165 33q76 32 135 91t91 135q33 79 33 165q0 6 -4.5 10.5t-10.5 4.5z" />
    <glyph glyph-name="uniE68B" unicode="&#xe68b;" 
d="M544 768q-163 0 -282.5 -110.5t-133.5 -273.5h-128l160 -192l160 192h-128q15 136 114.5 228t237.5 92q144 0 248 -104t104 -248t-104 -248t-248 -104h-32v-64h32q173 0 294.5 121.5t121.5 294.5t-121.5 294.5t-294.5 121.5z" />
    <glyph glyph-name="uniE68C" unicode="&#xe68c;" 
d="M511 -150q91 0 174 35.5t143 95.5t95.5 143.5t35.5 174.5t-35.5 174.5t-95.5 143.5t-143 95.5t-174 35.5t-174 -35.5t-143 -95.5t-95.5 -143.5t-35.5 -174.5t35.5 -174.5t95.5 -143.5t143 -95.5t174 -35.5zM511 712q112 0 207 -55.5t150 -150.5t55 -207t-55 -207
t-150 -150.5t-207 -55.5t-207 55.5t-150.5 150.5t-55.5 207t55.5 207t150.5 150.5t207 55.5zM538 106l25 -25l218 218l-218 218l-25 -25l175 -175h-435v-36h435z" />
    <glyph glyph-name="uniE68D" unicode="&#xe68d;" 
d="M504.5 880q-102.5 0 -196 -40t-161 -107.5t-107 -161t-39.5 -196t39.5 -195.5t107 -160.5t161 -107.5t196 -40t196 40t161 107.5t107.5 160.5t40 195.5t-40 196t-107.5 161t-161 107.5t-196 40zM504.5 -88q-94.5 0 -180 36.5t-148 99t-99 148.5t-36.5 180t36.5 180
t99 148t148 99t180 37t180.5 -37t148 -99t99 -148t37 -180t-37 -180t-99 -148.5t-148 -99t-180.5 -36.5zM708 391q-26 0 -44 19q-33 33 -80 33q-30 0 -56 -15v321h-1q-1 10 -8 16t-16.5 6t-16.5 -6t-8 -16h-1v-335q-12 -8 -16 -23h-1q-26 0 -44 19q-8 7 -18 7q-11 0 -18 -7
t-7 -18q0 -10 7 -18q33 -33 80 -33q9 0 17 2v-1v-39q0 -10 7.5 -17.5t18 -7.5t18 7.5t7.5 17.5v39q18 13 18 36v2q17 13 38 13q26 0 44 -19q33 -33 79.5 -33t79.5 33l-35 36q-18 -19 -44 -19zM911 410q-33 33 -79 33q-47 0 -80 -33l35 -36q19 19 45 19t44 -19q7 -7 17.5 -7
t18 7t7.5 18t-8 18zM504.5 880q-102.5 0 -195.5 -40t-160.5 -107.5t-107.5 -161t-40 -196t40 -195.5t107.5 -160.5t160.5 -107.5t195.5 -40t196 40t161 107.5t107 160.5t39.5 195.5t-39.5 196t-107 161t-161 107.5t-196 40zM505 -75q-92 0 -175.5 35.5t-144 96t-96 144
t-35.5 175.5t35.5 175.5t96 144t144 96t175.5 35.5t175.5 -35.5t143.5 -96t96 -144t36 -175.5t-36 -175.5t-96 -144t-143.5 -96t-175.5 -35.5z" />
    <glyph glyph-name="uniE68E" unicode="&#xe68e;" 
d="M504.5 879q-102.5 0 -195.5 -39.5t-160.5 -107t-107.5 -161t-40 -196t40 -196t107.5 -161t160.5 -107t195.5 -39.5t196 39.5t161 107t107.5 161t40 196t-40 196t-107.5 161t-161 107t-196 39.5zM504.5 -88q-94.5 0 -180 36.5t-147.5 99t-99 148t-37 180t37 180.5t99 148
t147.5 98.5t180 36.5t180.5 -36.5t148 -98.5t98.5 -148t36.5 -180.5t-36.5 -180t-98.5 -148t-148 -99t-180.5 -36.5zM498.5 753q-97.5 0 -167 -69.5t-69.5 -167.5q0 -10 7.5 -18t18 -8t18 8t7.5 18q0 77 54.5 131t131 54t130.5 -54t54 -130.5t-54 -131t-131 -54.5
q-10 0 -17.5 -7.5t-7.5 -18.5v-141q0 -11 7.5 -18.5t18 -7.5t18 7.5t7.5 18.5v117q89 10 150 77t61 158q0 98 -69.5 167.5t-167 69.5zM498.5 95q-19.5 0 -33 -13.5t-13.5 -32.5t13.5 -32.5t33 -13.5t33 13.5t13.5 32.5t-13.5 32.5t-33 13.5zM504.5 880q-102.5 0 -195.5 -40
t-160.5 -107.5t-107.5 -160.5t-40 -195.5t40 -196t107.5 -160.5t160.5 -107t195.5 -40t196 40t160.5 107t107 160.5t40 196t-40 195.5t-107 160.5t-160.5 107.5t-196 40zM504.5 -75q-91.5 0 -175 36t-144 96.5t-96 143.5t-35.5 175t35.5 175.5t96 144t144 96t175 35.5
t175 -35.5t144 -96t96.5 -144t36 -175.5t-36 -175t-96.5 -143.5t-144 -96.5t-175 -36z" />
    <glyph glyph-name="uniE68F" unicode="&#xe68f;" 
d="M504.5 879q-102.5 0 -195.5 -39.5t-160.5 -107t-107.5 -161t-40 -196t40 -196t107.5 -161t160.5 -107t195.5 -39.5t196 39.5t161 107t107.5 161t40 196t-40 196t-107.5 161t-161 107t-196 39.5zM504.5 -88q-94.5 0 -180 36.5t-147.5 99t-99 148t-37 180t37 180.5t99 148
t147.5 98.5t180 36.5t180.5 -36.5t148 -98.5t98.5 -148t36.5 -180.5t-36.5 -180t-98.5 -148t-148 -99t-180.5 -36.5zM502 115zM461 114.5q0 16.5 12 28.5t28.5 12t28.5 -12t12 -28.5t-12 -28.5t-28.5 -12t-28.5 12t-12 28.5zM527 266q0 -11 -7.5 -18t-17.5 -7q-11 0 -18 7
t-7 18v387q0 10 7 17.5t18 7.5q10 0 17.5 -7.5t7.5 -17.5v-387zM504.5 880q-102.5 0 -195.5 -40t-160.5 -107.5t-107.5 -160.5t-40 -195.5t40 -196t107.5 -160.5t160.5 -107t195.5 -40t196 40t160.5 107t107 160.5t40 196t-40 195.5t-107 160.5t-160.5 107.5t-196 40z
M504.5 -75q-91.5 0 -175 36t-144 96.5t-96 143.5t-35.5 175t35.5 175.5t96 144t144 96t175 35.5t175 -35.5t144 -96t96.5 -144t36 -175.5t-36 -175t-96.5 -143.5t-144 -96.5t-175 -36z" />
    <glyph glyph-name="uniE690" unicode="&#xe690;" 
d="M590 -36l26 6q8 2 12 9q5 8 3 16q-4 16 -21 16q-1 0 -5 -1q-12 -3 -22 -5q-9 -1 -14 -8.5t-3 -15.5q1 -8 8 -14q6 -3 12 -3h2h2zM897 489q3 0 7 1q8 3 12 10.5t1 16.5l-9 24q-5 13 -20 13q-4 0 -7 -1q-9 -3 -12 -11q-3 -9 0 -16q6 -15 8 -22q2 -6 8 -11q5 -4 12 -4z
M715 11q6 0 11 3l22 14q7 5 9 13t-3 16q-7 10 -17 10q-7 0 -12 -4q-10 -7 -20 -12q-8 -5 -10 -13.5t2 -15.5q2 -4 6 -6q6 -5 12 -5zM905 357q5 -4 12 -4q9 0 15 6t6 14q0 18 -0.5 26.5t-6.5 14t-14 5.5h-1q-9 0 -15 -6.5t-5 -14.5v-24q0 -11 9 -17zM849 157q-5 4 -13 4
q-10 0 -16 -9q-7 -9 -15 -18q-6 -7 -5 -15.5t7 -14.5q1 0 2 -1q6 -4 12 -4q10 0 16 8q6 6 17 20q5 7 3.5 16t-8.5 14zM905 282q-2 1 -6 1q-15 0 -20 -14q-5 -15 -8 -23q-5 -15 8 -24q1 -1 4 -3q4 -1 7 -1q15 0 20 14q4 11 9 24q2 8 -2 16t-12 10zM819 657q3 0 5 2.5t1 5.5
l-31 110l-33 -46l-11 7q-108 73 -237 73q-38 0 -73 -7q-23 -4 -33 -7h-1q-144 -37 -234 -157l-1 -1v-1l-6 -8q-3 -5 -9 -14l-1 -2q-73 -112 -67 -248v-2q0 -8 2 -25v-2q1 -13 4 -26q23 -134 119 -228v-1q27 -26 55 -45q78 -55 169 -71h4q8 0 13.5 4.5t6.5 12.5q2 8 -3 15
q-5 8 -13 9q-48 8 -95 30v1h-1q-14 6 -20 10v0l-2 1q-17 9 -35 22q-62 44 -102.5 108t-54 140t3.5 149.5t61 136.5q38 55 94 94l1 1q99 68 219 68q116 0 212 -65l12 -8l-32 -47zM737 231q8 0 12 8q7 13 -6 19l-237 123v259q0 6 -4.5 10.5t-10.5 4.5t-10 -4.5t-4 -10.5v-276
l253 -131q3 -2 7 -2z" />
    <glyph glyph-name="uniE691" unicode="&#xe691;" 
d="M512 798q-101 0 -193.5 -39.5t-159 -106t-106 -159t-39.5 -193.5t39.5 -193.5t106 -159t159 -106t193.5 -39.5t193.5 39.5t159 106t106 159t39.5 193.5t-39.5 193.5t-106 159t-159 106t-193.5 39.5zM512 -140q-182 0 -311 129t-129 311t129 311t311 129t311 -129
t129 -311t-129 -311t-311 -129z" />
    <glyph glyph-name="uniE692" unicode="&#xe692;" 
d="M607 565h-187q-9 0 -15 6.5t-6 15.5v180q0 9 6 15.5t15 6.5h188q9 0 15 -6t6 -14v-182q0 -9 -6.5 -15.5t-15.5 -6.5zM435 601h157v151h-157v-151zM984 -197h-193q-8 0 -14 6t-6 14v186q0 9 6 14.5t14 5.5h193q8 0 14 -5.5t6 -14.5v-186q0 -8 -6 -14t-14 -6zM808 -161h159
v154h-159v-154zM610 -197h-192q-9 0 -15 6t-6 14v186q0 9 6 14.5t15 5.5h192q8 0 14 -5.5t6 -14.5v-186q0 -8 -6 -14t-14 -6zM434 -161h160v154h-160v-154zM232 -197h-192q-9 0 -15 6t-6 14v186q0 9 6 14.5t15 5.5h192q8 0 14 -5.5t6 -14.5v-186q0 -8 -6 -14t-14 -6z
M56 -161h160v154h-160v-154zM513.5 -7q-7.5 0 -13 5.5t-5.5 12.5v572q0 8 5.5 13t13 5t13 -5t5.5 -13v-572q0 -7 -5.5 -12.5t-13 -5.5zM883 -7q-7 0 -12.5 5.5t-5.5 12.5q0 6 3 11v226h-714v-233q0 -8 -5.5 -13.5t-13 -5.5t-13 5.5t-5.5 13.5v249q0 8 6 14t15 6h747
q8 0 14 -6t6 -14v-249q0 -9 -6.5 -15.5t-15.5 -6.5z" />
    <glyph glyph-name="uniE693" unicode="&#xe693;" 
d="M874 680h-147q4 21 4 37q0 58 -41 99t-99.5 41t-99.5 -41t-41 -99q0 -16 5 -37h-148q-9 0 -15.5 -6.5t-6.5 -15.5v-141l-154 -342l-1 -1q-4 -8 -0.5 -17t11.5 -13l516 -231q9 -4 17.5 -0.5t12.5 11.5l95 210h92q9 0 15.5 6.5t6.5 15.5v502q0 9 -6.5 15.5t-15.5 6.5z
M591 812q39 0 67 -27q28 -28 28 -68q0 -41 -28 -67q-28 -28 -67.5 -28t-67.5 28q-9 9 -14 18v1h-1v1v0q-13 22 -13 47q0 39 28 67t68 28zM655 -37l-474 213l104 231v-251q0 -9 6.5 -15.5t15.5 -6.5h425zM851 179h-521v456h147q5 -8 14 -17q42 -41 100 -41t99 41q9 8 15 17
h146v-456zM452 410q-12 11 -27.5 11t-26.5 -11t-11 -26.5t11 -26.5l112 -112l2 -2q11 -10 26.5 -10t26.5 10l227 227q11 11 11 27t-11 27q-10 11 -26 11t-27 -11l-201 -201zM591 751q14 0 23.5 -10t9.5 -24t-9.5 -24t-23.5 -10t-24 10t-10 24t10 24t24 10z" />
    <glyph glyph-name="uniE694" unicode="&#xe694;" 
d="M250 435q37 -16 54 -29l-10 -16q-32 20 -54 29zM464 250q-5 -2 -21 -6t-27 -7q-32 -7 -42 -7q-19 0 -32 13q-3 3 -12 3q-9 -4 -23 -44l-16 9q9 37 26 48l-23 80l-35 -9l-3 16l54 16l26 -96q2 0 5 -2t5 -2q14 -9 25 -9q23 0 39 3q10 2 27 6.5t24 6.5q9 5 38 9q19 5 29 10
v-19zM362 442q25 -7 35 -13q5 4 11 9.5t12 12.5t9 10l-115 -32l-7 19l141 38l3 -12q-21 -32 -41 -48l6 -4l51 13l32 -115q5 -20 -16 -26l-22 -6l-10 16l19 3q11 5 7 13l-7 19l-44 -13l12 -44l-16 -4l-9 42l-45 -13l13 -45l-19 -3l-39 138l64 16q-6 1 -19 6t-19 7zM400 374
l-6 23l-45 -13l6 -22zM362 349l6 -23l45 13l-7 23zM461 390l-7 23l-44 -13l6 -22zM422 365l7 -23l45 13l-7 23zM509 506q22 -10 54 -29l-9 -16q-5 3 -15.5 10t-20 12.5t-19.5 9.5zM726 320q-4 -2 -20 -6l-28 -7q-38 -6 -44 -6q-19 0 -36 13q-3 3 -12 3q-9 -5 -23 -45l-16 10
q9 34 26 51l-23 80l-38 -10v13l54 16l26 -96q2 0 5 -1.5t5 -1.5q14 -10 25 -10q23 0 39 3q10 2 29 7t25 6l35 10q22 5 26 9v-19zM675 342l-9 16q25 7 32 7q9 5 9 13l-29 112l-96 -26l-6 19l96 26l-13 41l19 7l13 -42l35 10l7 -19l-35 -10l32 -115q4 -24 -20 -29zM618 448
q33 -24 51 -42l-13 -16q-29 29 -48 42zM512 -106q-165 0 -298 100t-176 262q-49 199 48 374q49 85 126 144.5t172 83.5q94 26 190 13t181 -61.5t144.5 -125.5t82.5 -172q21 -80 18 -156.5t-31.5 -148t-74.5 -130.5t-111.5 -102.5t-142.5 -64.5q-75 -16 -128 -16zM512 842
q-54 0 -118 -16q-89 -24 -161 -79.5t-117.5 -135t-57.5 -168.5t12 -177q41 -152 165 -246t277 -94q54 0 118 16q72 19 134 59.5t105 95.5t70 122t30 138t-15 145q-24 89 -79.5 161t-135.5 118q-103 61 -227 61zM512 -38q-115 0 -211 57q-75 44 -126 110t-73 149
q-21 83 -10 166t52 158q43 72 110.5 122.5t148.5 72.5q112 30 221.5 0.5t190 -109.5t110.5 -192t0.5 -221.5t-109.5 -190t-192 -110.5q-77 -12 -112 -12zM406 784q-79 -22 -144 -71.5t-105 -120.5q-41 -72 -52 -153t10 -161q22 -79 71.5 -144t120.5 -105q73 -41 153.5 -52
t160.5 10q108 28 185.5 106t105.5 184.5t0 215.5q-22 81 -74 147t-120 104t-149 51t-163 -11z" />
    <glyph glyph-name="uniE695" unicode="&#xe695;" 
d="M250 426l16 3l9 -32l80 22l3 -16l-80 -19l10 -42l90 26l3 -16l-77 -19q32 -37 99 -58v-19q-68 23 -105 70h-4l29 -105l-16 -3l-29 102h-3q-9 -62 -57 -115l-13 13q45 40 61 99l-77 -19l-3 16l89 25l-9 42l-77 -19l-3 16l76 19zM403 464q25 -8 48 -26l-9 -16
q-23 18 -48 26zM592 298q-8 -4 -42 -10q-32 -6 -38 -6q-14 0 -29 9q-3 3 -9 3q-9 0 -20 -38l-16 6q9 32 23 45l-19 71l-32 -10l-4 16l48 13l23 -87q1 0 3 -1.5t3 -1.5q10 -9 23 -9q19 0 32 3q32 6 44 13q7 3 32 10l26 6v-16zM502 467q13 -3 32 -9l29 28l-102 -28l-3 12
l124 32l4 -12q-10 -16 -36 -42l4 -3l44 13l29 -103q5 -17 -16 -22l-19 -7l-6 13l19 3q6 0 6 10l-3 16l-38 -10l9 -38h-19l-10 38l-41 -6l9 -42l-16 -3l-32 122l58 16q-10 3 -35 9zM534 410l-6 19l-38 -10l6 -19zM502 384l7 -19l38 9l-6 20zM589 422l-7 20l-38 -10l6 -19z
M554 400l6 -19l38 9l-6 20zM634 525q25 -9 48 -26l-10 -16q-19 15 -48 29zM826 358q-8 -4 -42 -9q-32 -7 -38 -7q-15 0 -29 10q-3 3 -10 3q-8 0 -19 -38l-16 6q9 32 22 45l-19 70l-32 -9l-3 16l48 13l22 -87l7 -3q4 -4 12.5 -6.5t9.5 -3.5q19 0 35 4q8 1 24 6t24 6l32 10
q6 1 11 3t7.5 2.5t4.5 0.5v-19zM781 381l-7 16q5 1 15.5 2.5t13.5 3.5q11 6 7 10l-29 99l-83 -22l-4 16l84 22l-10 35l16 3l10 -38l32 10l3 -16l-32 -10l29 -102q5 -21 -16 -26zM730 474q11 -8 26 -20.5t18 -15.5l-12 -12q-26 25 -45 38zM512 -106q-165 0 -298 100t-176 262
q-49 199 48 374q49 85 126 144.5t172 83.5q94 26 190 13t181 -61.5t144.5 -125.5t82.5 -172q21 -80 18 -156.5t-31.5 -148t-74.5 -130.5t-111.5 -102.5t-142.5 -64.5q-75 -16 -128 -16zM512 842q-54 0 -118 -16q-89 -24 -161 -79.5t-117.5 -135t-57.5 -168.5t12 -177
q41 -152 165 -246t277 -94q54 0 118 16q72 19 134 59.5t105 95.5t70 122t30 138t-15 145q-24 89 -79.5 161t-135.5 118q-103 61 -227 61zM512 -38q-115 0 -211 57q-75 44 -126 110t-73 149q-21 83 -10 166t52 158q43 72 110.5 122.5t148.5 72.5q82 21 165 10t158 -52
q75 -43 126 -109.5t73 -149.5q43 -168 -42 -323q-43 -75 -109.5 -126t-149.5 -73q-77 -12 -112 -12zM406 784q-79 -22 -144 -71.5t-105 -120.5q-41 -72 -52 -153t10 -161q22 -79 71.5 -144t120.5 -105q73 -41 153.5 -52t160.5 10q80 22 144.5 71.5t104.5 120.5
q41 73 52 153.5t-10 160.5q-22 80 -71.5 144.5t-120.5 104.5q-71 43 -153 53.5t-161 -11.5z" />
    <glyph glyph-name="uniE696" unicode="&#xe696;" horiz-adv-x="1025" 
d="M864 254q41 81 41 171q0 105 -52.5 194t-143 141t-197.5 52t-197.5 -52t-143 -141t-52.5 -194q0 -90 41 -171l-160 -272q101 -20 204 -42l136 -152l147 251q20 -2 25 -2t25 2l147 -251l136 152q46 10 97 20.5t79 15.5l28 6zM333 -96q-49 47 -96 92l-131 37l93 159
q84 -110 219 -143zM512 108q-87 0 -160.5 43t-116.5 116.5t-43 160.5t43 161t116.5 116.5t160.5 42.5t160.5 -42.5t116.5 -116.5t43 -161t-43 -160.5t-116.5 -116.5t-160.5 -43zM787 -4l-96 -92l-85 145q135 33 219 143l93 -159zM512 652q-93 0 -158.5 -65.5t-65.5 -158.5
t65.5 -158.5t158.5 -65.5t158.5 65.5t65.5 158.5t-65.5 158.5t-158.5 65.5zM512 268q-66 0 -113 47t-47 113t47 113t113 47t113 -47t47 -113t-47 -113t-113 -47z" />
    <glyph glyph-name="uniE697" unicode="&#xe697;" 
d="M504.5 -128q-100.5 0 -192.5 38t-163.5 109.5t-109.5 163.5t-38 193t38 193t109.5 163t163.5 109.5t192.5 38.5t192.5 -38.5t164 -109.5q96 -97 130.5 -226.5t0 -259.5t-130.5 -226q-72 -72 -164 -110t-192.5 -38zM504.5 823q-89.5 0 -171 -33.5t-145 -97t-97.5 -145.5
t-34 -171.5t34 -171t97.5 -145t145 -97.5t171 -34t171.5 34t145 97q86 86 116.5 201.5t0 230.5t-116.5 201q-63 64 -145 97.5t-171.5 33.5zM705 215q8 -8 8 -19.5t-8 -19.5q-8 -9 -20 -9t-20 9l-160 160l-161 -160q-8 -9 -19.5 -9t-20.5 9q-8 8 -8 19.5t8 19.5l161 161
l-161 160q-8 9 -8 20.5t8 19.5t20 8t20 -8l161 -161l160 161q8 8 20 8t20 -8t8 -19.5t-8 -20.5l-161 -160z" />
    <glyph glyph-name="uniE698" unicode="&#xe698;" 
d="M511 873q-100 0 -191 -39t-157 -104.5t-105 -157t-39 -191.5t39 -191t105 -157t157 -105t191 -39q154 0 280 87q13 11 13 28q0 15 -10.5 25t-25.5 10q-16 0 -26 -12q-105 -68 -230 -68q-115 0 -212 57t-153.5 154t-56.5 211.5t56.5 212t153.5 154t212 56.5t212 -56.5
t153.5 -154t56.5 -211.5q0 -142 -85 -255q-12 -11 -12 -27q0 -14 10 -24.5t25 -10.5q14 0 24 9v0q4 4 7 10q100 131 100 297q0 100 -38.5 191.5t-104.5 157t-157.5 104.5t-191.5 39zM511 873zM629 270q9 44 10 92h-95v-101q43 1 85 9v0zM507 261v101h-103q0 -45 8 -87
q49 -11 95 -14v0v0zM544 495v-97h93q-2 43 -13 88q-39 8 -80 9v0v0zM696 504q-8 11 -18 21q-16 15 -34 27q6 -19 10 -35q22 -6 42 -13v0v0zM739 398q-3 29 -14 56q-30 13 -61 22q8 -40 10 -78h65v0zM727 303q3 8 6 17q3 13 5 27v2q1 3 1 8l1 1v4h-65q0 -42 -7 -82
q30 9 59 23v0v0zM647 200q4 3 10 7q11 9 20 18q13 13 24 28q-20 -8 -42 -13q-5 -19 -12 -40v0v0zM544 164q14 1 28 4h1h1q11 3 24 7q12 28 21 56q-38 -6 -75 -7v-60v0zM442 180q15 -6 30 -10t29 -5q2 -1 6 -1v61q-42 2 -85 11q8 -28 20 -56v0v0zM353 253l6 -8q8 -10 18 -20
q8 -8 14 -13q-5 15 -9 33q-15 4 -29 8v0v0zM315 362q1 -17 4 -32l1 -2q3 -15 8 -28q23 -9 45 -15q-6 38 -6 77h-52v0zM547 535l-152 -43l10 39q-70 2 -119 -37.5t-56 -117.5q2 105 54.5 172.5t142.5 67.5l9 36l111 -117v0zM494 112h-1h-2q-43 6 -82 26h-1l-2 1
q-53 27 -89.5 74.5t-48.5 105.5l-1 2q-3 14 -4 28l2 24q3 35 17 61q27 47 82 59l-6 -27q-13 -5 -27 -9q-6 -14 -9 -27q-4 -15 -6 -30v-2h52q2 26 6 50l39 11q-6 -31 -8 -61h102v88l110 31l-10 13l-102 109q28 2 56 -2h1h1q89 -12 152 -75q56 -56 72 -133l1 -4q8 -41 2 -83
v-1v-2q-6 -43 -26 -82v-1l-1 -2q-27 -52 -74.5 -88.5t-105.5 -49.5h-2h-1l1 -1q-43 -8 -87 -3v0zM494 112z" />
    <glyph glyph-name="uniE699" unicode="&#xe699;" 
d="M166 546l-57 33q-38 -77 -44 -163h66q6 68 35 130zM198 165l-57 -33q48 -71 119 -119l33 57q-56 39 -95 95zM131 351h-66q6 -86 43 -163l58 33q-29 62 -35 130zM293 697l-33 57q-71 -48 -119 -119l57 -33q39 56 95 95zM479 764v66q-85 -6 -162 -43l33 -57q61 29 129 34z
M893 416h66q-6 86 -44 163l-57 -33q29 -62 35 -130zM316 -20q78 -38 163 -44v66q-68 6 -130 35zM707 787q-77 37 -163 43v-66q68 -5 130 -34zM825 602l58 33q-48 71 -119 119l-34 -57q56 -39 95 -95zM858 221l58 -33q37 77 43 163h-66q-6 -68 -35 -130zM544 2v-66
q86 6 163 44l-33 57q-61 -29 -130 -35zM731 70l33 -58q71 49 119 120l-57 33q-39 -56 -95 -95zM266 341q0 -13 9.5 -22t22 -9t22 9t9.5 22t-9.5 22t-22 9t-22 -9t-9.5 -22zM351 184q-13 0 -22.5 -9t-9.5 -22q0 -15 12 -24q-12 -10 -12 -24q0 -13 9.5 -22t22.5 -9t22 9t9 22
v3q6 -3 14 -3q12 0 21.5 9t9.5 22t-9.5 22t-21.5 9q-9 0 -16 -4q-7 21 -29 21zM338 215q0 13 -9 22t-22 9t-22 -9t-9 -22t9 -22t22 -9t22 9t9 22zM427 198q0 11 -7 19.5t-17 11.5q10 9 10 22t-9 22.5t-22 9.5t-22 -9.5t-9 -22.5q0 -10 6.5 -18.5t16.5 -11.5q-10 -9 -10 -23
q0 -13 9.5 -22t22 -9t22 9t9.5 22zM489 314q-13 0 -22 -9.5t-9 -22t9 -22t22 -9.5t22 9.5t9 22t-9 22t-22 9.5zM276 176q-13 0 -22 -9t-9 -22t9 -22t22 -9t22 9t9 22t-9 22t-22 9zM296 259q9 -11 23 -11q13 0 22.5 9t9.5 22t-9.5 22t-22.5 9q-22 0 -29 -21q-10 10 -24 10h-2
q2 6 2 11q0 13 -9 22t-22 9t-22 -9t-9 -22t9 -22t22 -9h2q-2 -5 -2 -11q0 -9 5 -17h-5q-13 0 -22 -9t-9 -22t9 -22t22 -9t22 9t9 22q0 10 -5 18q3 -1 5 -1q23 0 30 22zM369 629q-12 0 -21.5 -9t-9.5 -22t9.5 -22t22 -9t22 9t9.5 22t-9.5 22t-22.5 9zM688 372q-13 0 -22 -9
t-9 -22t9 -22t22 -9t22 9t9 22t-9 22t-22 9zM351 432q0 -13 9 -22t22 -9t22 9t9 22t-9 22t-22 9t-22 -9t-9 -22zM444 352q0 13 -9 22.5t-22 9.5t-22 -9.5t-9 -22.5t9 -22t22 -9t22 9t9 22zM751 415q0 -13 9 -22t22 -9t22 9t9 22t-9 22t-22 9t-22 -9t-9 -22zM636 641
q0 13 -9 22t-22 9t-22 -9t-9 -22t9 -22.5t22 -9.5t22 9.5t9 22.5zM617 415q13 0 22 9t9 22t-9 22t-22 9t-22 -9t-9 -22t9 -22t22 -9zM467 535q0 -13 9 -22t22 -9t22 9t9 22t-9 22.5t-22 9.5t-22 -9.5t-9 -22.5zM512 454q-13 0 -22 -9t-9 -22t9 -22t22 -9t22 9t9 22t-9 22
t-22 9zM512 454z" />
    </font>
</defs>
</svg>
